<?xml version="1.0" standalone="no"?>
<!DOCTYPE svg PUBLIC "-//W3C//DTD SVG 1.1//EN" "http://www.w3.org/Graphics/SVG/1.1/DTD/svg11.dtd" >
<svg>
<metadata>
Created by FontForge 20090622 at Thu Feb 21 15:47:35 2019
 By deploy user
Copyright &#194;&#169; 2011 Rod McDonald. Published by Canada Type. All rights reserved.
</metadata>
<defs>
<font id="Gibson-Light" horiz-adv-x="560" >
  <font-face 
    font-family="Gibson Light"
    font-weight="250"
    font-stretch="normal"
    units-per-em="1000"
    panose-1="2 0 0 0 0 0 0 0 0 0"
    ascent="800"
    descent="-200"
    x-height="462"
    cap-height="690"
    bbox="-171 -236 1420 948"
    underline-thickness="20"
    underline-position="-113"
    unicode-range="U+0020-U+FB04"
  />
<missing-glyph horiz-adv-x="200" 
 />
    <glyph glyph-name="ff" unicode="ff" horiz-adv-x="480" 
d="M520 690l-5 -45q-25 10 -50 10q-35 0 -54.5 -19t-24 -43t-4.5 -63v-68h118v-47h-118v-415h-52v415h-188v-415h-52v415h-70v47h70v63q0 82 27 122q35 53 98 53q22 0 38.5 -2.5t21.5 -5.5l5 -2l-5 -45q-25 10 -50 10q-35 0 -54.5 -19t-24 -43t-4.5 -63v-68h188v63
q0 82 27 122q35 53 98 53q22 0 38.5 -2.5t21.5 -5.5z" />
    <glyph glyph-name="fi" unicode="fi" horiz-adv-x="460" 
d="M397 629q0 -18 -12.5 -30.5t-30.5 -12.5t-30.5 12.5t-12.5 30.5t12.5 30.5t30.5 12.5t30.5 -12.5t12.5 -30.5zM381 464v-464h-53v464h53zM280 690l-5 -45q-25 10 -50 10q-35 0 -54.5 -19t-24 -43t-4.5 -63v-68h118v-47h-118v-415h-52v415h-70v47h70v63q0 82 27 122
q35 53 98 53q22 0 38.5 -2.5t21.5 -5.5z" />
    <glyph glyph-name="fl" unicode="fl" horiz-adv-x="460" 
d="M380 690v-690h-53v690h53zM280 690l-5 -45q-25 10 -50 10q-35 0 -54.5 -19t-24 -43t-4.5 -63v-68h118v-47h-118v-415h-52v415h-70v47h70v63q0 82 27 122q35 53 98 53q22 0 38.5 -2.5t21.5 -5.5z" />
    <glyph glyph-name="ffi" unicode="ffi" horiz-adv-x="692" 
d="M520 690l-5 -45q-25 10 -50 10q-35 0 -54.5 -19t-24 -43t-4.5 -63v-68h118v-47h-118v-415h-52v415h-188v-415h-52v415h-70v47h70v63q0 82 27 122q35 53 98 53q22 0 38.5 -2.5t21.5 -5.5l5 -2l-5 -45q-25 10 -50 10q-35 0 -54.5 -19t-24 -43t-4.5 -63v-68h188v63
q0 82 27 122q35 53 98 53q22 0 38.5 -2.5t21.5 -5.5zM612 464v-464h-52v464h52zM629 629q0 -18 -12.5 -30.5t-30.5 -12.5t-30.5 12.5t-12.5 30.5t12.5 30.5t30.5 12.5t30.5 -12.5t12.5 -30.5z" />
    <glyph glyph-name="ffl" unicode="ffl" horiz-adv-x="692" 
d="M520 690l-5 -45q-25 10 -50 10q-35 0 -54.5 -19t-24 -43t-4.5 -63v-68h118v-47h-118v-415h-52v415h-188v-415h-52v415h-70v47h70v63q0 82 27 122q35 53 98 53q22 0 38.5 -2.5t21.5 -5.5l5 -2l-5 -45q-25 10 -50 10q-35 0 -54.5 -19t-24 -43t-4.5 -63v-68h188v63
q0 82 27 122q35 53 98 53q22 0 38.5 -2.5t21.5 -5.5zM612 690v-690h-52v690h52z" />
    <glyph glyph-name="f_j" unicode="fj" horiz-adv-x="452" 
d="M280 690l-5 -45q-25 10 -50 10q-35 0 -54.5 -19t-24 -43t-4.5 -63v-68h118v-47h-118v-415h-52v415h-70v47h70v63q0 82 27 122q35 53 98 53q22 0 38.5 -2.5t21.5 -5.5zM372 464v-474q0 -89 -22 -128q-37 -62 -108 -62q-13 0 -24.5 2t-15.5 4l-5 1v45q20 -7 45 -7
q27 0 43.5 11t23.5 34.5t9 44t2 55.5v474h52zM389 629q0 -18 -12.5 -30.5t-30.5 -12.5t-30.5 12.5t-12.5 30.5t12.5 30.5t30.5 12.5t30.5 -12.5t12.5 -30.5z" />
    <glyph glyph-name="f_t" unicode="ft" horiz-adv-x="520" 
d="M500 50l5 -45q-25 -15 -70 -15q-61 0 -88 50q-11 22 -14 50t-3 90v235h-188v-415h-52v415h-70v47h70v63q0 82 27 122q35 53 98 53q22 0 38.5 -2.5t21.5 -5.5l5 -2l-5 -45q-25 10 -50 10q-35 0 -54.5 -19t-24 -43t-4.5 -63v-68h188v148h53v-148h117v-47h-118v-266
q0 -23 2 -39.5t8.5 -35t21 -28t36.5 -9.5q13 0 25.5 3.5t18.5 6.5z" />
    <glyph glyph-name=".notdef" horiz-adv-x="200" 
 />
    <glyph glyph-name=".null" horiz-adv-x="0" 
 />
    <glyph glyph-name="nonmarkingreturn" horiz-adv-x="333" 
 />
    <glyph glyph-name="space" unicode=" " horiz-adv-x="200" 
 />
    <glyph glyph-name="exclam" unicode="!" horiz-adv-x="285" 
d="M115 690h55l-5 -525h-45zM190 37q0 -20 -13.5 -33.5t-34.5 -13.5q-20 0 -33.5 13.5t-13.5 33.5q0 21 13.5 34.5t33.5 13.5q21 0 34.5 -13.5t13.5 -34.5z" />
    <glyph glyph-name="quotedbl" unicode="&#x22;" horiz-adv-x="400" 
d="M236 690h54l-6 -190h-43zM110 690h54l-5 -190h-44z" />
    <glyph glyph-name="numbersign" unicode="#" 
d="M525 490v-48h-121l-23 -157h114v-48h-120l-30 -210h-45l30 210h-140l-30 -210h-45l30 210h-110v48h116l23 157h-109v48h116l30 210h45l-30 -210h139l31 210h45l-31 -210h115zM336 285l23 157h-140l-23 -157h140z" />
    <glyph glyph-name="dollar" unicode="$" 
d="M495 172q0 -73 -53.5 -123.5t-127.5 -58.5v-85h-47v84q-68 1 -122 37.5t-80 100.5l47 25q21 -54 62.5 -84.5t92.5 -30.5v300l-42 20q-61 29 -95.5 68t-34.5 105q0 70 48.5 116t123.5 54v78h47v-78q106 -9 158 -100l-40 -30q-39 77 -118 85v-280l56 -27q58 -29 91.5 -68.5
t33.5 -107.5zM247 405l20 -10v260q-55 -6 -87.5 -39.5t-32.5 -85.5q0 -33 17 -59t35.5 -38.5t47.5 -27.5zM440 167q0 52 -24.5 82.5t-70.5 52.5l-31 15v-280q48 2 87 39t39 91z" />
    <glyph glyph-name="percent" unicode="%" horiz-adv-x="722" 
d="M350 535q0 -69 -43.5 -113.5t-109.5 -44.5t-109 44.5t-43 113.5t43 113t109 44t109.5 -44t43.5 -113zM555 705l37 -23l-425 -705l-37 23zM677 147q0 -69 -43 -113t-109 -44t-109.5 44t-43.5 113t43.5 113.5t109.5 44.5t109 -44.5t43 -113.5zM302 535q0 51 -29 83t-76 32
q-46 0 -75.5 -32.5t-29.5 -82.5q0 -51 29 -83t76 -32t76 32t29 83zM630 147q0 51 -29 83t-76 32t-76 -32t-29 -83t29 -83t76 -32q46 0 75.5 32.5t29.5 82.5z" />
    <glyph glyph-name="ampersand" unicode="&#x26;" horiz-adv-x="650" 
d="M640 5v-5h-68l-97 115q-54 -61 -108 -94t-132 -33q-87 0 -141 51t-54 136q0 41 14 74.5t44.5 61.5t58 46t73.5 43l-21.5 26t-24 31t-17.5 29.5t-15.5 38.5t-4.5 40q0 58 41.5 96.5t111.5 38.5q69 0 109.5 -38.5t40.5 -96.5q0 -93 -143 -175l168 -198q18 21 45.5 69
t39.5 79l50 -15q-9 -23 -43 -81.5t-60 -88.5zM395 565q0 44 -26 67t-69 23t-70.5 -25.5t-27.5 -69.5q0 -17 4.5 -33t15 -32.5l16 -25t21 -26t16.5 -18.5l15 9q22 13 34.5 22t32 26t29 38t9.5 45zM442 152l-180 213l-35 -20q-39 -23 -62.5 -40.5t-45.5 -51t-22 -73.5
q0 -64 42.5 -104.5t107.5 -40.5q59 0 112 36.5t83 80.5z" />
    <glyph glyph-name="quotesingle" unicode="'" horiz-adv-x="274" 
d="M110 690h54l-5 -190h-44z" />
    <glyph glyph-name="parenleft" unicode="(" horiz-adv-x="250" 
d="M225 -110l-35 -20q-140 210 -140 445t140 445l35 -20q-44 -67 -82 -186t-38 -239t38 -239t82 -186z" />
    <glyph glyph-name="parenright" unicode=")" horiz-adv-x="250" 
d="M200 315q0 -235 -140 -445l-35 20q44 67 82 186t38 239t-38 239t-82 186l35 20q140 -210 140 -445z" />
    <glyph glyph-name="asterisk" unicode="*" horiz-adv-x="525" 
d="M422 615l18 -45l-150 -48l97 -130l-40 -27l-85 137l-85 -137l-40 27l98 130l-150 48l17 45l143 -58l-8 148h50l-7 -148z" />
    <glyph glyph-name="plus" unicode="+" horiz-adv-x="645" 
d="M575 367v-45h-230v-230h-45v230h-230v45h230v230h45v-230h230z" />
    <glyph glyph-name="comma" unicode="," horiz-adv-x="285" 
d="M140 80h60l-80 -220h-40z" />
    <glyph glyph-name="hyphen" unicode="-" horiz-adv-x="261" 
d="M240 303v-50h-219v50h219z" />
    <glyph glyph-name="period" unicode="." horiz-adv-x="285" 
d="M190 37q0 -20 -13.5 -33.5t-34.5 -13.5q-20 0 -33.5 13.5t-13.5 33.5q0 21 13.5 34.5t33.5 13.5q21 0 34.5 -13.5t13.5 -34.5z" />
    <glyph glyph-name="slash" unicode="/" horiz-adv-x="505" 
d="M440 787l43 -21l-418 -855l-43 21z" />
    <glyph glyph-name="zero" unicode="0" 
d="M530 344q0 -93 -25 -171t-83.5 -131t-141.5 -53t-141.5 53t-83.5 131t-25 171q0 69 15 131t44.5 113.5t78.5 81.5t112 30q83 0 141.5 -53t83.5 -131t25 -172zM472 346q0 139 -50 223t-142 84t-142.5 -84.5t-50.5 -222.5t50.5 -222.5t142.5 -84.5t142 84t50 223z" />
    <glyph glyph-name="one" unicode="1" horiz-adv-x="415" 
d="M255 690v-690h-53v645h-142v45h195z" />
    <glyph glyph-name="two" unicode="2" 
d="M515 50v-50h-440l-10 40l250 245q31 31 52 55.5t43 69t22 85.5q0 69 -44 113t-118 44q-66 0 -107.5 -37.5t-62.5 -84.5l-40 25q11 25 26.5 46.5t40.5 45.5t62 38.5t81 14.5q95 0 156 -56t61 -147q0 -25 -5.5 -50t-18 -48t-23 -40.5t-28.5 -38.5l-26.5 -30.5t-26.5 -26.5
t-19 -18l-200 -195h375z" />
    <glyph glyph-name="three" unicode="3" 
d="M495 187q0 -87 -66 -142t-169 -55q-39 0 -74 12.5t-58 30t-40.5 35t-25.5 30.5l-7 12l40 32q3 -4 7.5 -11t21 -25t34.5 -32t46.5 -25t57.5 -11q81 0 129.5 39t48.5 110t-47 109.5t-118 38.5h-45v52h45q65 0 105 35t40 98q0 61 -43.5 96.5t-106.5 35.5q-54 0 -91 -22.5
t-74 -64.5l-35 30q39 49 86 77t119 28q83 0 141.5 -48t58.5 -127q0 -39 -12.5 -69.5t-33 -48.5t-38.5 -28t-36 -14v-3q49 -7 94.5 -51.5t45.5 -123.5z" />
    <glyph glyph-name="four" unicode="4" 
d="M540 210v-50h-106v-160h-53v160h-356v40l360 495h49v-485h106zM85 210h296v405z" />
    <glyph glyph-name="five" unicode="5" 
d="M495 215q0 -104 -70.5 -165.5t-169.5 -61.5q-83 0 -136 37.5t-74 79.5l40 30q21 -41 66.5 -69.5t108.5 -28.5q73 0 126.5 46.5t53.5 131.5t-53 131t-127 46q-83 0 -120 -37l-35 20l65 315h310v-48h-270l-48 -222q40 20 103 20q92 0 161 -61t69 -164z" />
    <glyph glyph-name="six" unicode="6" 
d="M515 220q0 -100 -60.5 -166t-159.5 -66q-139 0 -200 122q-40 80 -40 220q0 169 73 275q65 95 189 95q34 0 65.5 -7.5t51.5 -18t35 -21.5t21 -19l7 -7l-30 -37q-69 65 -152 65q-94 0 -148 -80q-60 -91 -60 -270q55 128 195 128q86 0 149.5 -59.5t63.5 -153.5zM460 211
q0 73 -43 124t-122 51q-80 0 -124 -51t-44 -124t44 -124t124 -51q79 0 122 51t43 124z" />
    <glyph glyph-name="seven" unicode="7" 
d="M515 690l15 -30l-350 -660h-55l340 642h-405v48h455z" />
    <glyph glyph-name="eight" unicode="8" 
d="M500 187q0 -92 -60.5 -145t-159.5 -53t-159.5 53t-60.5 145q0 66 36 112.5t96 65.5v2q-21 9 -36 18.5t-34 27.5t-29.5 47t-10.5 67q0 78 58 125.5t140 47.5t139.5 -47.5t57.5 -125.5q0 -38 -10.5 -67t-29.5 -47t-34 -27.5t-36 -18.5v-2q60 -19 96.5 -65.5t36.5 -112.5z
M422 521q0 62 -40 96.5t-102 34.5t-102.5 -34.5t-40.5 -96.5t40.5 -96.5t102.5 -34.5t102 34.5t40 96.5zM445 190q0 70 -46 111t-119 41t-119 -41t-46 -111q0 -69 47.5 -111.5t117.5 -42.5t117.5 42.5t47.5 111.5z" />
    <glyph glyph-name="nine" unicode="9" 
d="M505 360q0 -172 -73 -278q-66 -94 -185 -94q-118 0 -190 72l30 37q67 -62 160 -62q51 0 84.5 18.5t60.5 58.5q60 91 60 273q-54 -130 -195 -130q-86 0 -149 59.5t-63 153.5q0 100 60.5 166t159.5 66q139 0 200 -122q40 -80 40 -218zM432 478q0 73 -43.5 124t-123.5 51
t-122.5 -51t-42.5 -124t42.5 -124t122.5 -51t123.5 51t43.5 124z" />
    <glyph glyph-name="colon" unicode=":" horiz-adv-x="285" 
d="M190 422q0 -20 -13.5 -33.5t-34.5 -13.5q-20 0 -33.5 13.5t-13.5 33.5q0 21 13.5 34.5t33.5 13.5q21 0 34.5 -13.5t13.5 -34.5zM190 37q0 -20 -13.5 -33.5t-34.5 -13.5q-20 0 -33.5 13.5t-13.5 33.5q0 21 13.5 34.5t33.5 13.5q21 0 34.5 -13.5t13.5 -34.5z" />
    <glyph glyph-name="semicolon" unicode=";" horiz-adv-x="285" 
d="M190 422q0 -20 -13.5 -33.5t-34.5 -13.5q-20 0 -33.5 13.5t-13.5 33.5q0 21 13.5 34.5t33.5 13.5q21 0 34.5 -13.5t13.5 -34.5zM140 80h60l-80 -220h-40z" />
    <glyph glyph-name="less" unicode="&#x3c;" horiz-adv-x="645" 
d="M575 135v-50l-505 235v50l505 235v-50l-455 -210z" />
    <glyph glyph-name="equal" unicode="=" horiz-adv-x="645" 
d="M575 445v-45h-505v45h505zM575 290v-45h-505v45h505z" />
    <glyph glyph-name="greater" unicode="&#x3e;" horiz-adv-x="645" 
d="M575 370v-50l-505 -235v50l455 210l-455 210v50z" />
    <glyph glyph-name="question" unicode="?" horiz-adv-x="465" 
d="M410 545q0 -29 -6 -52t-22 -45t-26 -33t-34 -35l-9 -9q-24 -24 -34.5 -36.5t-19 -34t-9.5 -50.5l-3 -85h-45l-2 75q-1 42 12.5 76t26 48t36.5 36q47 44 62 70q18 33 18 70q0 51 -34.5 81.5t-88.5 30.5q-49 0 -80.5 -24t-44.5 -58l-40 25q7 16 18 31.5t30.5 33.5t51 29
t70.5 11q79 0 126 -46t47 -109zM272 37q0 -20 -13.5 -33.5t-33.5 -13.5q-21 0 -34.5 13.5t-13.5 33.5q0 21 13.5 34.5t34.5 13.5q20 0 33.5 -13.5t13.5 -34.5z" />
    <glyph glyph-name="at" unicode="@" horiz-adv-x="800" 
d="M758 290q0 -121 -73.5 -205.5t-158.5 -84.5q-72 0 -81 65q-65 -65 -135 -65q-16 0 -33 6.5t-36 21.5t-31.5 46.5t-12.5 75.5q0 64 29.5 129.5t84.5 111.5t119 46q40 0 69 -13.5t39 -27.5l9 -14l13 35h52l-97 -282q-12 -36 -12 -54q0 -34 37 -34q60 0 115 71.5t55 171.5
q0 107 -80.5 181t-209.5 74q-134 0 -231 -96t-97 -239q0 -144 84 -232t214 -88q76 0 146 22t99 39.5t40 28.5l21 -34q-6 -6 -17 -14.5t-39 -25t-61 -29t-83.5 -22.5t-105.5 -10q-150 0 -249 100t-99 265q0 164 113.5 272t264.5 108q146 0 242 -86t96 -214zM479 186l51 149
q-1 2 -2.5 6t-9.5 14t-18.5 17.5t-30.5 13.5t-45 6q-50 0 -91.5 -40t-62 -93.5t-20.5 -103.5q0 -62 24.5 -85t55.5 -23q34 0 78.5 32t70.5 107z" />
    <glyph glyph-name="A" unicode="A" horiz-adv-x="630" 
d="M330 692l295 -692h-63l-85 207h-329l-86 -207h-57l295 692h30zM168 257h288l-144 353z" />
    <glyph glyph-name="B" unicode="B" horiz-adv-x="562" 
d="M515 195q0 -91 -73 -150q-54 -45 -172 -45h-185v690h152q113 0 160 -35q65 -49 65 -138q0 -52 -31 -94.5t-78 -56.5q75 -12 118.5 -56.5t43.5 -114.5zM457 192q0 71 -60 113q-43 29 -145 29h-113v-285h113q104 0 145 28q60 42 60 115zM407 515q0 76 -55 105
q-38 21 -110 21h-103v-259h93q86 0 120 25q55 39 55 108z" />
    <glyph glyph-name="C" unicode="C" horiz-adv-x="675" 
d="M610 130l35 -35q-97 -107 -255 -107q-151 0 -249.5 99.5t-98.5 256.5q0 156 100 256t248 100q150 0 250 -100l-35 -40q-29 37 -87 64t-128 27q-128 0 -209 -85t-81 -220t81 -221t209 -86q137 0 220 91z" />
    <glyph glyph-name="D" unicode="D" horiz-adv-x="675" 
d="M632 345q0 -145 -105 -250q-39 -39 -104 -67t-148 -28h-190v690h190q83 0 148 -28t104 -67q105 -105 105 -250zM576 345q0 133 -96 222q-79 74 -210 74h-131v-592h131q132 0 210 73q96 89 96 223z" />
    <glyph glyph-name="E" unicode="E" horiz-adv-x="515" 
d="M467 49v-49h-382v690h375v-49h-321v-250h303v-49h-303v-293h328z" />
    <glyph glyph-name="F" unicode="F" horiz-adv-x="475" 
d="M435 690v-49h-296v-271h278v-49h-278v-321h-54v690h350z" />
    <glyph glyph-name="G" unicode="G" horiz-adv-x="750" 
d="M675 351v-256q-3 -4 -10 -11.5t-32.5 -26t-55.5 -32.5t-80.5 -25.5t-106.5 -11.5q-150 0 -249 101.5t-99 255.5q0 153 98.5 254t246.5 101q171 0 275 -120l-37 -40q-93 111 -238 111q-124 0 -205.5 -83.5t-81.5 -222.5t84 -222.5t211 -83.5q46 0 86.5 8t65 19t42.5 22
t25 19l8 8v187h-212v49h265z" />
    <glyph glyph-name="H" unicode="H" horiz-adv-x="705" 
d="M620 690v-690h-54v345h-427v-345h-54v690h54v-296h427v296h54z" />
    <glyph glyph-name="I" unicode="I" horiz-adv-x="224" 
d="M139 690v-690h-54v690h54z" />
    <glyph glyph-name="J" unicode="J" horiz-adv-x="224" 
d="M139 690v-695q0 -97 -24 -140q-33 -60 -100 -60q-16 0 -30.5 2.5t-20.5 4.5l-7 3v45q18 -8 53 -8q25 0 41 11.5t23 35t9 45.5t2 56v700h54z" />
    <glyph glyph-name="K" unicode="K" horiz-adv-x="545" 
d="M257 420l298 -420h-68l-267 385l-81 -80v-305h-54v690h54v-323l326 323h70z" />
    <glyph glyph-name="L" unicode="L" horiz-adv-x="395" 
d="M385 49v-49h-300v690h54v-641h246z" />
    <glyph glyph-name="M" unicode="M" horiz-adv-x="840" 
d="M720 690l70 -690h-54l-59 599l-255 -611h-5l-256 612l-57 -600h-54l70 690h62l237 -589l238 589h63z" />
    <glyph glyph-name="N" unicode="N" horiz-adv-x="733" 
d="M648 690v-690h-49l-460 605v-605h-54v690h54l455 -595v595h54z" />
    <glyph glyph-name="O" unicode="O" horiz-adv-x="785" 
d="M742 344q0 -160 -102 -258t-248 -98t-248 98t-102 258t102 258t248 98t248 -98t102 -258zM686 345q0 140 -85.5 223.5t-208.5 83.5t-208 -83.5t-85 -223.5q0 -139 85.5 -222.5t207.5 -83.5q123 0 208.5 83.5t85.5 222.5z" />
    <glyph glyph-name="P" unicode="P" horiz-adv-x="500" 
d="M465 506q0 -81 -63 -136q-55 -48 -159 -48h-104v-322h-54v690h158q104 0 159 -48q63 -55 63 -136zM408 506q0 68 -48 104q-43 31 -115 31h-106v-270h106q72 0 115 31q48 36 48 104z" />
    <glyph glyph-name="Q" unicode="Q" horiz-adv-x="785" 
d="M742 344q0 -163 -108 -264l78 -90l-39 -34l-79 92q-89 -60 -202 -60q-146 0 -248 98t-102 258t102 258t248 98t248 -98t102 -258zM686 345q0 140 -85.5 223.5t-208.5 83.5t-208 -83.5t-85 -223.5q0 -139 85.5 -222.5t207.5 -83.5q94 0 167 49l-66 77l39 34l67 -78
q87 85 87 224z" />
    <glyph glyph-name="R" unicode="R" horiz-adv-x="500" 
d="M290 322l210 -322h-69l-204 320h-88v-320h-54v690h160q98 0 156.5 -49.5t58.5 -135.5q0 -80 -48.5 -126t-121.5 -57zM403 505q0 71 -51 107q-25 19 -55.5 24t-81.5 5h-76v-272h76q34 0 53 1t43 7.5t41 19.5q51 38 51 108z" />
    <glyph glyph-name="S" unicode="S" horiz-adv-x="522" 
d="M477 180q0 -81 -61.5 -136.5t-159.5 -55.5q-47 0 -86.5 14.5t-64.5 37.5t-38.5 40t-21.5 32l42 30q23 -42 68 -74.5t106 -32.5q69 0 115 39.5t46 105.5q0 31 -13.5 56.5t-39.5 42.5t-40 24t-39 17q-78 31 -113 50q-100 56 -100 160q0 74 57.5 122t145.5 48q40 0 75 -12
t57 -30t33 -29.5t15 -18.5l-38 -33q-59 75 -146 75q-63 0 -103.5 -31.5t-40.5 -88.5q0 -52 28 -81t75 -49q133 -57 142 -62q100 -56 100 -160z" />
    <glyph glyph-name="T" unicode="T" horiz-adv-x="484" 
d="M474 690v-49h-205v-641h-54v641h-205v49h464z" />
    <glyph glyph-name="U" unicode="U" horiz-adv-x="650" 
d="M570 690v-412q0 -72 -9 -119t-40 -86q-68 -85 -196 -85t-196 85q-31 39 -40 86t-9 119v412h54v-417q0 -114 35 -162q54 -73 156 -73t156 73q35 48 35 162v417h54z" />
    <glyph glyph-name="V" unicode="V" horiz-adv-x="555" 
d="M494 690h56l-252 -691h-42l-251 691h59l215 -600z" />
    <glyph glyph-name="W" unicode="W" horiz-adv-x="907" 
d="M840 690h57l-202 -691h-50l-192 613l-191 -613h-50l-202 691h57l173 -598l185 598h57l185 -598z" />
    <glyph glyph-name="X" unicode="X" horiz-adv-x="532" 
d="M300 355l227 -355h-65l-196 317l-196 -317h-65l227 355l-210 335h63l181 -298l181 298h63z" />
    <glyph glyph-name="Y" unicode="Y" horiz-adv-x="545" 
d="M477 690h63l-241 -395v-295h-54v295l-240 395h62l205 -345z" />
    <glyph glyph-name="Z" unicode="Z" horiz-adv-x="535" 
d="M510 49v-49h-480v45l402 596h-391v49h464v-36l-410 -605h415z" />
    <glyph glyph-name="bracketleft" unicode="[" horiz-adv-x="250" 
d="M210 -90v-43h-160v893h160v-43h-108v-807h108z" />
    <glyph glyph-name="backslash" unicode="\" horiz-adv-x="500" 
d="M62 795l418 -785l-43 -22l-417 785z" />
    <glyph glyph-name="bracketright" unicode="]" horiz-adv-x="250" 
d="M210 760v-893h-160v43h107v807h-107v43h160z" />
    <glyph glyph-name="asciicircum" unicode="^" horiz-adv-x="645" 
d="M347 690l180 -390h-50l-155 340l-155 -340h-50l180 390h50z" />
    <glyph glyph-name="underscore" unicode="_" horiz-adv-x="500" 
d="M500 24v-49h-500v49h500z" />
    <glyph glyph-name="grave" unicode="`" horiz-adv-x="280" 
d="M125 690l95 -145h-45l-115 145h65z" />
    <glyph glyph-name="a" unicode="a" horiz-adv-x="460" 
d="M395 275v-275h-53v65q-64 -75 -157 -75q-67 0 -111 40t-44 100q0 62 47 99t138 41l127 5v25q0 61 -36.5 94t-93.5 33q-46 0 -84.5 -14.5t-52.5 -25.5l-20 38q70 47 155 47q91 0 140 -52q45 -50 45 -145zM342 120v115l-132 -8q-128 -7 -128 -97q0 -40 29.5 -67.5
t83.5 -27.5q51 0 88.5 26t58.5 59z" />
    <glyph glyph-name="b" unicode="b" horiz-adv-x="575" 
d="M535 232q0 -105 -63.5 -173.5t-166.5 -68.5q-117 0 -173 98v-88h-52v690h52v-315q62 97 175 97q102 0 165 -67.5t63 -172.5zM480 232q0 84 -47 139.5t-128 55.5q-82 0 -128.5 -55.5t-46.5 -139.5t46.5 -139.5t128.5 -55.5q81 0 128 55.5t47 139.5z" />
    <glyph glyph-name="c" unicode="c" horiz-adv-x="470" 
d="M427 105l30 -35q-68 -80 -190 -80q-95 0 -161 68.5t-66 173.5q0 104 69 172t163 68q121 0 183 -80l-33 -35q-59 68 -152 68q-72 0 -123.5 -53t-51.5 -137q0 -87 49.5 -142.5t127.5 -55.5q47 0 85.5 17t54.5 34z" />
    <glyph glyph-name="d" unicode="d" horiz-adv-x="575" 
d="M40 232q0 105 63 172.5t165 67.5q111 0 174 -95v313h53v-690h-53v86q-57 -96 -172 -96q-103 0 -166.5 68.5t-63.5 173.5zM95 232q0 -84 47 -139.5t128 -55.5q82 0 128.5 55.5t46.5 139.5t-46.5 139.5t-128.5 55.5q-81 0 -128 -55.5t-47 -139.5z" />
    <glyph glyph-name="e" unicode="e" horiz-adv-x="510" 
d="M475 255l-3 -35h-377q4 -84 49 -133.5t123 -49.5q47 0 87.5 15t57.5 30l18 15l25 -37q-2 -3 -7 -7.5t-22 -16.5t-37.5 -21.5t-54.5 -17t-72 -7.5q-100 0 -161 67.5t-61 174.5q0 105 65.5 172.5t159.5 67.5q91 0 150.5 -61.5t59.5 -155.5zM97 265h325q0 24 -9 51
t-27.5 52.5t-50.5 42t-73 16.5q-78 0 -120 -51.5t-45 -110.5z" />
    <glyph glyph-name="f" unicode="f" horiz-adv-x="240" 
d="M280 690l-5 -45q-25 10 -50 10q-35 0 -54.5 -19t-24 -43t-4.5 -63v-68h118v-47h-118v-415h-52v415h-70v47h70v63q0 82 27 122q35 53 98 53q22 0 38.5 -2.5t21.5 -5.5z" />
    <glyph glyph-name="g" unicode="g" horiz-adv-x="570" 
d="M495 464v-364q0 -139 -38 -200q-63 -100 -200 -100q-53 0 -102 17.5t-71 34.5l-22 18l30 40q22 -22 70.5 -42.5t99.5 -20.5q96 0 140 60q40 56 40 158v34q-56 -99 -175 -99q-95 0 -161 65t-66 171t66 171t161 65q60 0 105.5 -26.5t69.5 -69.5v88h53zM445 237
q0 82 -46 135.5t-129 53.5t-129 -53.5t-46 -135.5t46 -136t129 -54t129 54t46 136z" />
    <glyph glyph-name="h" unicode="h" horiz-adv-x="521" 
d="M446 277v-277h-53v275q0 32 -4 56t-15 47.5t-34.5 36t-59.5 12.5q-72 0 -110 -55t-38 -142v-230h-52v690h52v-312q17 42 58.5 68t91.5 26q93 0 128.5 -51t35.5 -144z" />
    <glyph glyph-name="i" unicode="i" horiz-adv-x="212" 
d="M149 629q0 -18 -12.5 -30.5t-30.5 -12.5t-30.5 12.5t-12.5 30.5t12.5 30.5t30.5 12.5t30.5 -12.5t12.5 -30.5zM132 464v-464h-52v464h52z" />
    <glyph glyph-name="j" unicode="j" horiz-adv-x="212" 
d="M149 629q0 -18 -12.5 -30.5t-30.5 -12.5t-30.5 12.5t-12.5 30.5t12.5 30.5t30.5 12.5t30.5 -12.5t12.5 -30.5zM132 464v-474q0 -89 -22 -128q-37 -62 -108 -62q-13 0 -24.5 2t-15.5 4l-5 1v45q20 -7 45 -7q27 0 43.5 11t23.5 34.5t9 44t2 55.5v474h52z" />
    <glyph glyph-name="k" unicode="k" horiz-adv-x="445" 
d="M230 287l220 -287h-65l-190 255l-63 -58v-197h-52v690h52v-435l223 209h65z" />
    <glyph glyph-name="l" unicode="l" horiz-adv-x="212" 
d="M132 690v-690h-52v690h52z" />
    <glyph glyph-name="m" unicode="m" horiz-adv-x="777" 
d="M707 282v-282h-52v282q0 145 -100 145q-65 0 -101.5 -53.5t-36.5 -131.5v-242h-52v282q0 145 -100 145q-65 0 -101.5 -53.5t-36.5 -131.5v-242h-52v464h52v-86q15 39 54.5 66.5t85.5 27.5q106 0 138 -97q23 45 62 71t85 26q155 0 155 -190z" />
    <glyph glyph-name="n" unicode="n" horiz-adv-x="511" 
d="M441 277v-277h-53v275q0 32 -4 56t-15 47.5t-34.5 36t-59.5 12.5q-72 0 -110 -55t-38 -142v-230h-52v464h52v-86q17 42 58.5 68t91.5 26q93 0 128.5 -51t35.5 -144z" />
    <glyph glyph-name="o" unicode="o" horiz-adv-x="555" 
d="M515 230q0 -104 -68.5 -172t-169.5 -68q-100 0 -168.5 68t-68.5 172t68.5 173t168.5 69q101 0 169.5 -69t68.5 -173zM460 232q0 83 -50 139t-133 56q-82 0 -132 -56t-50 -139t50 -139t132 -56q83 0 133 56t50 139z" />
    <glyph glyph-name="p" unicode="p" horiz-adv-x="575" 
d="M535 230q0 -105 -63 -172.5t-165 -67.5q-113 0 -175 97v-277h-52v654h52v-90q58 98 173 98q105 0 167.5 -68.5t62.5 -173.5zM480 230q0 84 -47 140.5t-128 56.5q-82 0 -128.5 -56t-46.5 -141q0 -83 46.5 -138t128.5 -55t128.5 54.5t46.5 138.5z" />
    <glyph glyph-name="q" unicode="q" horiz-adv-x="570" 
d="M40 230q0 105 62.5 173.5t167.5 68.5q115 0 173 -98v90h52v-654h-52v277q-61 -97 -175 -97q-102 0 -165 68.5t-63 171.5zM95 230q0 -84 46.5 -138.5t128.5 -54.5t128.5 55t46.5 138q0 85 -46.5 141t-128.5 56q-83 0 -129 -56.5t-46 -140.5z" />
    <glyph glyph-name="r" unicode="r" horiz-adv-x="300" 
d="M295 465l-5 -51q-22 8 -50 8q-49 0 -80 -42q-33 -45 -33 -130v-250h-52v464h52v-87q12 45 45 70t73 25q13 0 25.5 -2t18.5 -4z" />
    <glyph glyph-name="s" unicode="s" horiz-adv-x="390" 
d="M357 127q0 -63 -47.5 -100t-115.5 -37q-115 0 -169 90l37 30q50 -73 134 -73q47 0 78 22.5t31 65.5q0 12 -4 23t-14 20t-17.5 15t-23 13t-22 9.5t-24 8.5t-18.5 6q-23 8 -38 15t-39 22t-37 38.5t-13 52.5q0 59 42.5 91.5t98.5 32.5q89 0 146 -65l-32 -32q-48 53 -116 53
q-40 0 -64.5 -19.5t-24.5 -54.5q0 -23 16.5 -40.5t36 -27t54.5 -21.5q31 -11 48.5 -18.5t44 -24t39.5 -40.5t13 -55z" />
    <glyph glyph-name="t" unicode="t" horiz-adv-x="280" 
d="M260 50l5 -45q-25 -15 -70 -15q-61 0 -88 50q-11 22 -14 50t-3 90v235h-70v47h70v148h53v-148h117v-47h-118v-266q0 -23 2 -39.5t8.5 -35t21 -28t36.5 -9.5q13 0 25.5 3.5t18.5 6.5z" />
    <glyph glyph-name="u" unicode="u" horiz-adv-x="507" 
d="M432 464v-464h-52v75q-46 -85 -150 -85q-85 0 -125 52q-35 45 -35 146v276h52v-284q0 -30 4 -52.5t15 -45.5t35.5 -35t60.5 -12q72 0 107.5 52.5t35.5 127.5v249h52z" />
    <glyph glyph-name="v" unicode="v" horiz-adv-x="440" 
d="M380 464h55l-195 -464h-40l-195 464h55l160 -389z" />
    <glyph glyph-name="w" unicode="w" horiz-adv-x="720" 
d="M650 464h55l-155 -464h-45l-145 390l-145 -390h-45l-155 464h55l125 -389l145 390h40l145 -390z" />
    <glyph glyph-name="x" unicode="x" horiz-adv-x="450" 
d="M255 245l190 -245h-60l-160 212l-160 -212h-60l190 245l-168 219h58l140 -187l140 187h57z" />
    <glyph glyph-name="y" unicode="y" horiz-adv-x="435" 
d="M380 464h55l-235 -572q-36 -87 -104 -87q-14 0 -28 3t-21 6l-7 3l10 50q18 -10 46 -10q23 0 38.5 14.5t30.5 58.5l27 77l-187 457h55l160 -404z" />
    <glyph glyph-name="z" unicode="z" horiz-adv-x="430" 
d="M405 47v-47h-380v37l297 378h-282v47h350v-37l-298 -378h313z" />
    <glyph glyph-name="braceleft" unicode="{" horiz-adv-x="250" 
d="M215 -90v-43h-15q-71 0 -95.5 35t-24.5 115v185q0 85 -65 85v53q65 0 65 85v185q0 80 24.5 115t95.5 35h15v-43h-15q-38 0 -53 -15t-15 -52v-210q0 -64 -15 -88.5t-52 -36.5v-3q37 -12 52 -36.5t15 -88.5v-210q0 -37 15 -52t53 -15h15z" />
    <glyph glyph-name="bar" unicode="|" horiz-adv-x="250" 
d="M147 800v-900h-45v900h45z" />
    <glyph glyph-name="braceright" unicode="}" horiz-adv-x="250" 
d="M235 340v-53q-65 0 -65 -85v-185q0 -80 -24.5 -115t-95.5 -35h-15v43h15q38 0 52.5 15t14.5 52v210q0 63 15.5 88t52.5 37v3q-37 12 -52.5 37t-15.5 88v210q0 38 -14.5 52.5t-52.5 14.5h-15v43h15q71 0 95.5 -35t24.5 -115v-185q0 -85 65 -85z" />
    <glyph glyph-name="asciitilde" unicode="~" horiz-adv-x="645" 
d="M527 340l38 -25q-56 -100 -135 -100q-39 0 -115 37q-74 38 -103 38q-52 0 -95 -75l-37 25q54 100 135 100q41 0 115 -38l17 -8.5t18.5 -9t16.5 -7t17.5 -6.5t15.5 -4t17 -2q54 0 95 75z" />
    <glyph glyph-name="nbspace" unicode="&#xa0;" horiz-adv-x="200" 
 />
    <glyph glyph-name="exclamdown" unicode="&#xa1;" horiz-adv-x="285" 
d="M190 426q0 -20 -13.5 -33.5t-34.5 -13.5q-20 0 -33.5 13.5t-13.5 33.5q0 21 13.5 34.5t33.5 13.5q21 0 34.5 -13.5t13.5 -34.5zM165 299l5 -525h-55l5 525h45z" />
    <glyph glyph-name="cent" unicode="&#xa2;" 
d="M465 172l25 -37q-26 -26 -73.5 -48t-94.5 -22v-95h-45v97q-91 7 -149 75t-58 163q0 94 58 161.5t149 78.5v95h45v-94q54 -1 100 -23t65 -46l-27 -37q-18 21 -55 40t-83 20v-387q41 1 82 19t61 40zM277 115v384q-67 -8 -110 -64t-43 -129t42.5 -128.5t110.5 -62.5z" />
    <glyph glyph-name="sterling" unicode="&#xa3;" 
d="M510 50v-50h-445v50h115q19 30 32 73.5t13 76.5q0 20 -2.5 41t-4.5 33l-3 11h-120v45h107l-27 70q-30 75 -30 130q0 70 50 120t130 50q117 0 165 -90l-40 -30q-38 75 -125 75q-62 0 -93.5 -36.5t-31.5 -83.5q0 -60 30 -135l27 -70h153v-45h-140q10 -40 10 -85
q0 -33 -13 -76.5t-32 -73.5h275z" />
    <glyph glyph-name="currency" unicode="&#xa4;" 
d="M485 120l35 -30q-5 -9 -14 -21t-30.5 -33t-58.5 -34.5t-82 -13.5q-97 0 -161.5 74.5t-78.5 200.5h-70v47h66q-1 24 -1 39l1 39h-66v47h70q15 115 79.5 190t159.5 75q125 0 181 -90l-35 -35q-56 77 -148 77q-63 0 -113.5 -54t-66.5 -163h288v-47h-292q-1 -24 -1 -39l1 -39
h292v-47h-288q13 -106 62 -164.5t121 -58.5q97 0 150 80z" />
    <glyph glyph-name="yen" unicode="&#xa5;" 
d="M472 690h63l-175 -300h125v-46h-150l-27 -46v-38h177v-47h-177v-213h-57v213h-176v47h176v38l-26 46h-150v46h125l-175 300h62l193 -340z" />
    <glyph glyph-name="brokenbar" unicode="&#xa6;" horiz-adv-x="250" 
d="M147 800v-310h-45v310h45zM147 310v-310h-45v310h45z" />
    <glyph glyph-name="section" unicode="&#xa7;" 
d="M470 590l-40 -25q-38 92 -135 92q-50 0 -80 -27t-30 -75q0 -45 32.5 -74.5t92.5 -55.5q67 -29 108.5 -68.5t41.5 -106.5q0 -28 -11 -53t-26 -40.5t-30.5 -27.5t-26.5 -17l-11 -5q42 -23 69.5 -61t27.5 -89q0 -68 -50.5 -112.5t-126.5 -44.5q-143 0 -185 125l45 20
q36 -100 145 -100q52 0 86 28t34 82q0 51 -36 82t-104 58q-155 62 -155 172q0 42 22.5 76.5t45 49.5t42.5 22q-3 2 -9 5.5t-20 16t-25 27t-20 38t-9 48.5q0 67 45.5 108.5t117.5 41.5q133 0 175 -110zM407 252q0 63 -72 103l-85 40q-93 -31 -93 -125q0 -63 73 -103l85 -40
q92 33 92 125z" />
    <glyph glyph-name="dieresis" unicode="&#xa8;" horiz-adv-x="280" 
d="M250 617q0 -20 -12.5 -32.5t-30.5 -12.5q-17 0 -29.5 12.5t-12.5 32.5t12.5 32.5t29.5 12.5q18 0 30.5 -12.5t12.5 -32.5zM115 617q0 -20 -12.5 -32.5t-30.5 -12.5q-17 0 -29.5 12.5t-12.5 32.5t12.5 32.5t29.5 12.5q18 0 30.5 -12.5t12.5 -32.5z" />
    <glyph glyph-name="copyright" unicode="&#xa9;" horiz-adv-x="800" 
d="M756 345q0 -149 -103.5 -252.5t-252.5 -103.5t-252.5 103.5t-103.5 252.5t103.5 252.5t252.5 103.5t252.5 -103.5t103.5 -252.5zM713 345q0 128 -92.5 220.5t-220.5 92.5t-220.5 -92.5t-92.5 -220.5t92.5 -220.5t220.5 -92.5t220.5 92.5t92.5 220.5zM542 229l29 -31
q-53 -64 -157 -64q-86 0 -145 60t-59 151t59 151t145 60q101 0 152 -59l-28 -36q-17 21 -48.5 37t-72.5 16q-65 0 -110 -45t-45 -122q0 -78 43.5 -123t111.5 -45q76 0 125 50z" />
    <glyph glyph-name="ordfeminine" unicode="&#xaa;" horiz-adv-x="335" 
d="M275 345v-163h-47v38q-13 -15 -40.5 -29t-57.5 -14q-38 0 -69 23t-31 65q0 81 112 85l86 2v8q0 37 -23 56t-58 19q-27 0 -51.5 -9.5t-30.5 -15.5l-20 30q43 32 105 32q63 0 95 -32q30 -30 30 -95zM228 255v65l-78 -3q-68 -2 -68 -50q0 -24 17 -38t48 -14q49 0 81 40z" />
    <glyph glyph-name="guillemotleft" unicode="&#xab;" horiz-adv-x="435" 
d="M250 232l120 -159l-37 -27l-141 186l141 186l36 -28zM107 232l120 -159l-37 -27l-141 186l141 186l36 -28z" />
    <glyph glyph-name="logicalnot" unicode="&#xac;" horiz-adv-x="647" 
d="M575 445v-275h-45v230h-460v45h505z" />
    <glyph glyph-name="uni00AD" unicode="&#xad;" horiz-adv-x="261" 
d="M240 303v-50h-219v50h219z" />
    <glyph glyph-name="registered" unicode="&#xae;" horiz-adv-x="800" 
d="M756 345q0 -149 -103.5 -252.5t-252.5 -103.5t-252.5 103.5t-103.5 252.5t103.5 252.5t252.5 103.5t252.5 -103.5t103.5 -252.5zM713 345q0 128 -92.5 220.5t-220.5 92.5t-220.5 -92.5t-92.5 -220.5t92.5 -220.5t220.5 -92.5t220.5 92.5t92.5 220.5zM436 321l116 -180
h-62l-107 175h-57v-175h-49v408h116q63 0 100.5 -30t37.5 -86q0 -51 -28.5 -77.5t-66.5 -34.5zM478 433q0 73 -92 73h-60v-147h60q92 0 92 74z" />
    <glyph glyph-name="macron" unicode="&#xaf;" horiz-adv-x="280" 
d="M250 610v-40h-220v40h220z" />
    <glyph glyph-name="degree" unicode="&#xb0;" horiz-adv-x="400" 
d="M347 590q0 -63 -43 -104t-104 -41t-104.5 41t-43.5 104t43.5 104t104.5 41t104 -41t43 -104zM302 590q0 42 -29 72t-73 30t-73.5 -30t-29.5 -72t29.5 -72.5t73.5 -30.5t73 30.5t29 72.5z" />
    <glyph glyph-name="plusminus" unicode="&#xb1;" horiz-adv-x="645" 
d="M575 452v-45h-230v-210h-45v210h-230v45h230v210h45v-210h230zM575 152v-45h-505v45h505z" />
    <glyph glyph-name="twosuperior" unicode="&#xb2;" horiz-adv-x="355" 
d="M320 333v-41h-280v38l165 170q34 34 49.5 60t15.5 57q0 34 -27 57t-71 23q-81 0 -95 -85l-42 3q8 55 44.5 88.5t95.5 33.5q60 0 100 -34t40 -86q0 -13 -3 -26t-6 -22.5t-11 -22.5l-12 -19.5t-16 -20t-15 -16.5l-17 -17.5l-15 -15.5l-123 -124h223z" />
    <glyph glyph-name="threesuperior" unicode="&#xb3;" horiz-adv-x="355" 
d="M322 413q0 -56 -41 -91t-103 -35q-53 0 -91 27t-47 75l41 9q8 -33 32.5 -52t63.5 -19q41 0 71 23.5t30 61.5q0 42 -29 65.5t-74 24.5h-16v40l22 1q36 2 62 23.5t26 58.5q0 31 -24 51.5t-62 20.5q-35 0 -58.5 -17.5t-31.5 -47.5l-37 12q13 42 47 67.5t80 25.5
q55 0 92.5 -32t37.5 -80q0 -34 -21.5 -61t-56.5 -40v-1q40 -10 63.5 -40t23.5 -70z" />
    <glyph glyph-name="acute" unicode="&#xb4;" horiz-adv-x="280" 
d="M155 690h65l-115 -145h-45z" />
    <glyph glyph-name="mu" unicode="&#xb5;" horiz-adv-x="514" 
d="M439 462v-462h-53v70q-17 -30 -57 -55.5t-83 -25.5q-44 0 -76.5 15.5t-42.5 35.5v-230h-52v652h52v-267q0 -74 25 -116t94 -42q71 0 105.5 45t34.5 118v262h53z" />
    <glyph glyph-name="paragraph" unicode="&#xb6;" 
d="M500 690v-45h-55v-835h-50v835h-90v-835h-50v490q-88 0 -141.5 51.5t-53.5 143.5q0 94 55 144.5t160 50.5h225z" />
    <glyph glyph-name="periodcentered" unicode="&#xb7;" horiz-adv-x="285" 
d="M190 287q0 -20 -13.5 -33.5t-34.5 -13.5q-20 0 -33.5 13.5t-13.5 33.5q0 21 13.5 34.5t33.5 13.5q21 0 34.5 -13.5t13.5 -34.5z" />
    <glyph glyph-name="cedilla" unicode="&#xb8;" horiz-adv-x="300" 
d="M180 0h45l-85 -145h-65z" />
    <glyph glyph-name="onesuperior" unicode="&#xb9;" horiz-adv-x="355" 
d="M238 727v-435h-44v398h-87v37h131z" />
    <glyph glyph-name="ordmasculine" unicode="&#xba;" horiz-adv-x="375" 
d="M335 325q0 -63 -42.5 -105.5t-105.5 -42.5q-62 0 -104.5 42.5t-42.5 105.5t42.5 105t104.5 42q63 0 105.5 -42t42.5 -105zM286 327q0 49 -28.5 76.5t-70.5 27.5q-41 0 -69.5 -27.5t-28.5 -76.5q0 -48 28.5 -77t69.5 -29t70 28.5t29 77.5z" />
    <glyph glyph-name="guillemotright" unicode="&#xbb;" horiz-adv-x="435" 
d="M244 418l142 -186l-142 -186l-35 28l118 158l-119 159zM101 418l142 -186l-142 -186l-35 28l118 158l-119 159z" />
    <glyph glyph-name="onequarter" unicode="&#xbc;" horiz-adv-x="854" 
d="M766 133v-41h-65v-92h-44v92h-227v25l237 328h34v-312h65zM560 705l37 -23l-425 -705l-37 23zM201 690v-415h-44v377h-87v38h131zM487 133h170v237z" />
    <glyph glyph-name="onehalf" unicode="&#xbd;" horiz-adv-x="855" 
d="M790 42v-42h-275l-8 30l148 145q75 73 75 128q0 39 -26.5 63t-66.5 24q-65 0 -97 -75l-35 20q47 95 140 95q54 0 92 -34t38 -86q0 -33 -14 -63.5t-29.5 -48.5t-41.5 -43l-118 -113h218zM560 705l37 -23l-425 -705l-37 23zM201 690v-415h-44v377h-87v38h131z" />
    <glyph glyph-name="threequarters" unicode="&#xbe;" horiz-adv-x="854" 
d="M766 133v-41h-65v-92h-44v92h-227v25l237 328h34v-312h65zM600 705l37 -23l-425 -705l-37 23zM322 413q0 -56 -41 -91t-103 -35q-53 0 -91 27t-47 75l41 9q8 -33 32.5 -52t63.5 -19q41 0 71 23.5t30 61.5q0 42 -29 65.5t-74 24.5h-16v40l22 1q36 2 62 23.5t26 58.5
q0 31 -24 51.5t-62 20.5q-35 0 -58.5 -17.5t-31.5 -47.5l-37 12q13 42 47 67.5t80 25.5q55 0 92.5 -32t37.5 -80q0 -34 -21.5 -61t-56.5 -40v-1q40 -10 63.5 -40t23.5 -70zM487 133h170v237z" />
    <glyph glyph-name="questiondown" unicode="&#xbf;" horiz-adv-x="465" 
d="M292 426q0 -20 -13.5 -33.5t-33.5 -13.5q-21 0 -34.5 13.5t-13.5 33.5q0 21 13.5 34.5t34.5 13.5q20 0 33.5 -13.5t13.5 -34.5zM362 -106l40 -25q-7 -16 -18 -31.5t-30.5 -33.5t-51 -29t-70.5 -11q-79 0 -125.5 45.5t-46.5 109.5q0 37 14.5 70t28 48.5t44.5 46.5l14 13.5
t13.5 13.5t10.5 11.5t10.5 13t7.5 12t7.5 14t4.5 14.5t4 18t1 20l2 85h45l3 -75q1 -32 -5 -57.5t-20.5 -46.5t-23 -30t-26.5 -26q-19 -17 -27.5 -25.5t-24 -28t-22 -40.5t-6.5 -46q0 -52 34 -82.5t88 -30.5q48 0 80 24.5t45 58.5z" />
    <glyph glyph-name="Agrave" unicode="&#xc0;" horiz-adv-x="630" 
d="M242 895l95 -145h-45l-115 145h65zM330 692l295 -692h-63l-85 207h-329l-86 -207h-57l295 692h30zM168 257h288l-144 353z" />
    <glyph glyph-name="Aacute" unicode="&#xc1;" horiz-adv-x="630" 
d="M387 895h65l-115 -145h-45zM330 692l295 -692h-63l-85 207h-329l-86 -207h-57l295 692h30zM168 257h288l-144 353z" />
    <glyph glyph-name="Acircumflex" unicode="&#xc2;" horiz-adv-x="630" 
d="M330 895l95 -145h-45l-65 105l-65 -105h-45l95 145h30zM330 692l295 -692h-63l-85 207h-329l-86 -207h-57l295 692h30zM168 257h288l-144 353z" />
    <glyph glyph-name="Atilde" unicode="&#xc3;" horiz-adv-x="630" 
d="M422 862l33 -10q-4 -36 -27 -56.5t-51 -20.5q-12 0 -24 3t-18.5 6t-15 8t-9.5 5l-12 8q-13 8 -25 12.5t-23 4.5q-18 0 -29.5 -12.5t-13.5 -29.5l-32 10q4 36 26.5 56.5t50.5 20.5q10 0 19.5 -1.5t17 -4.5t13 -6l11.5 -6t7 -4l12 -8q13 -8 25 -12.5t23 -4.5q18 0 29 13
t13 29zM330 692l295 -692h-63l-85 207h-329l-86 -207h-57l295 692h30zM168 257h288l-144 353z" />
    <glyph glyph-name="Adieresis" unicode="&#xc4;" horiz-adv-x="630" 
d="M425 817q0 -20 -12.5 -32.5t-30.5 -12.5q-17 0 -29.5 12.5t-12.5 32.5t12.5 32.5t29.5 12.5q18 0 30.5 -12.5t12.5 -32.5zM290 817q0 -20 -12.5 -32.5t-30.5 -12.5q-17 0 -29.5 12.5t-12.5 32.5t12.5 32.5t29.5 12.5q18 0 30.5 -12.5t12.5 -32.5zM330 692l295 -692h-63
l-85 207h-329l-86 -207h-57l295 692h30zM168 257h288l-144 353z" />
    <glyph glyph-name="Aring" unicode="&#xc5;" horiz-adv-x="630" 
d="M405 827q0 -37 -26.5 -63.5t-63.5 -26.5t-63.5 26.5t-26.5 63.5t26.5 63.5t63.5 26.5t63.5 -26.5t26.5 -63.5zM330 692l295 -692h-63l-85 207h-329l-86 -207h-57l295 692h30zM367 827q0 23 -15 39t-37 16t-37.5 -16t-15.5 -39t15.5 -39t37.5 -16t37 16t15 39zM168 257
h288l-144 353z" />
    <glyph glyph-name="AE" unicode="&#xc6;" horiz-adv-x="837" 
d="M790 49v-49h-355v210h-270l-130 -210h-60l435 690h373v-49h-294v-245h276v-49h-276v-298h301zM196 260h239v382h-3z" />
    <glyph glyph-name="Ccedilla" unicode="&#xc7;" horiz-adv-x="675" 
d="M610 130l35 -35q-97 -107 -253 -107l-65 -138h-65l85 141q-128 12 -216.5 107t-88.5 246q0 156 100 256t248 100q150 0 250 -100l-35 -40q-29 37 -87 64t-128 27q-128 0 -209 -85t-81 -220t81 -221t209 -86q137 0 220 91z" />
    <glyph glyph-name="Egrave" unicode="&#xc8;" horiz-adv-x="515" 
d="M214 895l95 -145h-45l-115 145h65zM467 49v-49h-382v690h375v-49h-321v-250h303v-49h-303v-293h328z" />
    <glyph glyph-name="Eacute" unicode="&#xc9;" horiz-adv-x="515" 
d="M314 895h65l-115 -145h-45zM467 49v-49h-382v690h375v-49h-321v-250h303v-49h-303v-293h328z" />
    <glyph glyph-name="Ecircumflex" unicode="&#xca;" horiz-adv-x="515" 
d="M287 895l95 -145h-45l-65 105l-65 -105h-45l95 145h30zM467 49v-49h-382v690h375v-49h-321v-250h303v-49h-303v-293h328z" />
    <glyph glyph-name="Edieresis" unicode="&#xcb;" horiz-adv-x="515" 
d="M382 817q0 -20 -12.5 -32.5t-29.5 -12.5q-18 0 -30.5 12.5t-12.5 32.5t12.5 32.5t30.5 12.5q17 0 29.5 -12.5t12.5 -32.5zM247 817q0 -20 -12.5 -32.5t-29.5 -12.5q-18 0 -30.5 12.5t-12.5 32.5t12.5 32.5t30.5 12.5q17 0 29.5 -12.5t12.5 -32.5zM467 49v-49h-382v690
h375v-49h-321v-250h303v-49h-303v-293h328z" />
    <glyph glyph-name="Igrave" unicode="&#xcc;" horiz-adv-x="224" 
d="M44 895l95 -145h-45l-115 145h65zM139 690v-690h-54v690h54z" />
    <glyph glyph-name="Iacute" unicode="&#xcd;" horiz-adv-x="224" 
d="M180 895h65l-115 -145h-45zM139 690v-690h-54v690h54z" />
    <glyph glyph-name="Icircumflex" unicode="&#xce;" horiz-adv-x="224" 
d="M127 895l95 -145h-45l-65 105l-65 -105h-45l95 145h30zM139 690v-690h-54v690h54z" />
    <glyph glyph-name="Idieresis" unicode="&#xcf;" horiz-adv-x="224" 
d="M222 822q0 -20 -12.5 -32.5t-30.5 -12.5q-17 0 -29.5 12.5t-12.5 32.5t12.5 32.5t29.5 12.5q18 0 30.5 -12.5t12.5 -32.5zM87 822q0 -20 -12.5 -32.5t-30.5 -12.5q-17 0 -29.5 12.5t-12.5 32.5t12.5 32.5t29.5 12.5q18 0 30.5 -12.5t12.5 -32.5zM139 690v-690h-54v690h54
z" />
    <glyph glyph-name="Eth" unicode="&#xd0;" horiz-adv-x="675" 
d="M632 345q0 -145 -105 -250q-39 -39 -104 -67t-148 -28h-190v340h-70v49h70v301h190q83 0 148 -28t104 -67q105 -105 105 -250zM576 345q0 133 -96 222q-79 74 -210 74h-131v-252h201v-49h-201v-291h131q132 0 210 73q96 89 96 223z" />
    <glyph glyph-name="Ntilde" unicode="&#xd1;" horiz-adv-x="733" 
d="M474 862l32 -10q-4 -36 -26.5 -56.5t-50.5 -20.5q-10 0 -19.5 1.5t-17 4.5t-13 6l-11.5 6t-7 4l-13 8q-12 8 -24 12.5t-23 4.5q-18 0 -29 -13t-13 -29l-33 10q4 36 27 56.5t51 20.5q12 0 24 -3t18.5 -6t15 -8t9.5 -5l13 -8q12 -8 24 -12.5t23 -4.5q18 0 29.5 12.5
t13.5 29.5zM648 690v-690h-49l-460 605v-605h-54v690h54l455 -595v595h54z" />
    <glyph glyph-name="Ograve" unicode="&#xd2;" horiz-adv-x="785" 
d="M320 895l95 -145h-45l-115 145h65zM742 344q0 -160 -102 -258t-248 -98t-248 98t-102 258t102 258t248 98t248 -98t102 -258zM686 345q0 140 -85.5 223.5t-208.5 83.5t-208 -83.5t-85 -223.5q0 -139 85.5 -222.5t207.5 -83.5q123 0 208.5 83.5t85.5 222.5z" />
    <glyph glyph-name="Oacute" unicode="&#xd3;" horiz-adv-x="785" 
d="M465 895h65l-115 -145h-45zM742 344q0 -160 -102 -258t-248 -98t-248 98t-102 258t102 258t248 98t248 -98t102 -258zM686 345q0 140 -85.5 223.5t-208.5 83.5t-208 -83.5t-85 -223.5q0 -139 85.5 -222.5t207.5 -83.5q123 0 208.5 83.5t85.5 222.5z" />
    <glyph glyph-name="Ocircumflex" unicode="&#xd4;" horiz-adv-x="785" 
d="M407 895l95 -145h-45l-65 105l-65 -105h-45l95 145h30zM742 344q0 -160 -102 -258t-248 -98t-248 98t-102 258t102 258t248 98t248 -98t102 -258zM686 345q0 140 -85.5 223.5t-208.5 83.5t-208 -83.5t-85 -223.5q0 -139 85.5 -222.5t207.5 -83.5q123 0 208.5 83.5
t85.5 222.5z" />
    <glyph glyph-name="Otilde" unicode="&#xd5;" horiz-adv-x="785" 
d="M500 862l32 -10q-4 -36 -26.5 -56.5t-50.5 -20.5q-10 0 -19.5 1.5t-17 4.5t-13 6l-11.5 6t-7 4l-13 8q-12 8 -24 12.5t-23 4.5q-18 0 -29 -13t-13 -29l-33 10q4 36 27 56.5t51 20.5q12 0 24 -3t18.5 -6t15 -8t9.5 -5l13 -8q12 -8 24 -12.5t23 -4.5q18 0 29.5 12.5
t13.5 29.5zM742 344q0 -160 -102 -258t-248 -98t-248 98t-102 258t102 258t248 98t248 -98t102 -258zM686 345q0 140 -85.5 223.5t-208.5 83.5t-208 -83.5t-85 -223.5q0 -139 85.5 -222.5t207.5 -83.5q123 0 208.5 83.5t85.5 222.5z" />
    <glyph glyph-name="Odieresis" unicode="&#xd6;" horiz-adv-x="785" 
d="M502 817q0 -20 -12.5 -32.5t-29.5 -12.5q-18 0 -30.5 12.5t-12.5 32.5t12.5 32.5t30.5 12.5q17 0 29.5 -12.5t12.5 -32.5zM367 817q0 -20 -12.5 -32.5t-29.5 -12.5q-18 0 -30.5 12.5t-12.5 32.5t12.5 32.5t30.5 12.5q17 0 29.5 -12.5t12.5 -32.5zM742 344
q0 -160 -102 -258t-248 -98t-248 98t-102 258t102 258t248 98t248 -98t102 -258zM686 345q0 140 -85.5 223.5t-208.5 83.5t-208 -83.5t-85 -223.5q0 -139 85.5 -222.5t207.5 -83.5q123 0 208.5 83.5t85.5 222.5z" />
    <glyph glyph-name="multiply" unicode="&#xd7;" horiz-adv-x="645" 
d="M355 344l210 -212l-30 -32l-213 212l-212 -212l-30 32l210 212l-210 211l30 32l212 -212l213 212l30 -32z" />
    <glyph glyph-name="Oslash" unicode="&#xd8;" horiz-adv-x="785" 
d="M742 344q0 -160 -102 -258t-248 -98q-136 0 -233 85l-82 -83l-32 32l81 83q-84 97 -84 239q0 160 102 258t248 98q138 0 234 -85l84 85l32 -33l-83 -85q83 -96 83 -238zM165 145l426 433q-82 74 -199 74q-123 0 -208 -83.5t-85 -223.5q0 -120 66 -200zM686 345
q0 118 -64 200l-425 -434q80 -72 195 -72q123 0 208.5 83.5t85.5 222.5z" />
    <glyph glyph-name="Ugrave" unicode="&#xd9;" horiz-adv-x="650" 
d="M276 895l95 -145h-45l-115 145h65zM570 690v-412q0 -72 -9 -119t-40 -86q-68 -85 -196 -85t-196 85q-31 39 -40 86t-9 119v412h54v-417q0 -114 35 -162q54 -73 156 -73t156 73q35 48 35 162v417h54z" />
    <glyph glyph-name="Uacute" unicode="&#xda;" horiz-adv-x="650" 
d="M374 895h65l-115 -145h-45zM570 690v-412q0 -72 -9 -119t-40 -86q-68 -85 -196 -85t-196 85q-31 39 -40 86t-9 119v412h54v-417q0 -114 35 -162q54 -73 156 -73t156 73q35 48 35 162v417h54z" />
    <glyph glyph-name="Ucircumflex" unicode="&#xdb;" horiz-adv-x="650" 
d="M340 895l95 -145h-45l-65 105l-65 -105h-45l95 145h30zM570 690v-412q0 -72 -9 -119t-40 -86q-68 -85 -196 -85t-196 85q-31 39 -40 86t-9 119v412h54v-417q0 -114 35 -162q54 -73 156 -73t156 73q35 48 35 162v417h54z" />
    <glyph glyph-name="Udieresis" unicode="&#xdc;" horiz-adv-x="650" 
d="M435 817q0 -20 -12.5 -32.5t-30.5 -12.5q-17 0 -29.5 12.5t-12.5 32.5t12.5 32.5t29.5 12.5q18 0 30.5 -12.5t12.5 -32.5zM300 817q0 -20 -12.5 -32.5t-30.5 -12.5q-17 0 -29.5 12.5t-12.5 32.5t12.5 32.5t29.5 12.5q18 0 30.5 -12.5t12.5 -32.5zM570 690v-412
q0 -72 -9 -119t-40 -86q-68 -85 -196 -85t-196 85q-31 39 -40 86t-9 119v412h54v-417q0 -114 35 -162q54 -73 156 -73t156 73q35 48 35 162v417h54z" />
    <glyph glyph-name="Yacute" unicode="&#xdd;" horiz-adv-x="545" 
d="M322 895h65l-115 -145h-45zM477 690h63l-241 -395v-295h-54v295l-240 395h62l205 -345z" />
    <glyph glyph-name="Thorn" unicode="&#xde;" horiz-adv-x="495" 
d="M455 364q0 -82 -63 -137q-54 -47 -159 -47h-94v-180h-54v690h54v-143h94q105 0 159 -47q63 -55 63 -136zM398 364q0 67 -48 103q-45 32 -115 32h-96v-271h96q70 0 115 32q48 36 48 104z" />
    <glyph glyph-name="germandbls" unicode="&#xdf;" horiz-adv-x="525" 
d="M485 207q0 -93 -64 -153t-171 -60l-50 6l5 48q39 -6 50 -6q69 0 122 42t53 123q0 86 -52 130.5t-138 44.5h-30v48h30q56 0 88 32t32 88q0 52 -35.5 78.5t-79.5 26.5q-62 0 -90 -43q-23 -34 -23 -112v-500h-52v467q0 92 10 123q15 48 50 75q44 35 115 35q65 0 111 -41
t46 -104q0 -59 -31 -97.5t-66 -42.5v-3q66 -6 118 -62t52 -143z" />
    <glyph glyph-name="agrave" unicode="&#xe0;" horiz-adv-x="460" 
d="M162 690l95 -145h-45l-115 145h65zM395 275v-275h-53v65q-64 -75 -157 -75q-67 0 -111 40t-44 100q0 62 47 99t138 41l127 5v25q0 61 -36.5 94t-93.5 33q-46 0 -84.5 -14.5t-52.5 -25.5l-20 38q70 47 155 47q91 0 140 -52q45 -50 45 -145zM342 120v115l-132 -8
q-128 -7 -128 -97q0 -40 29.5 -67.5t83.5 -27.5q51 0 88.5 26t58.5 59z" />
    <glyph glyph-name="aacute" unicode="&#xe1;" horiz-adv-x="460" 
d="M262 690h65l-115 -145h-45zM395 275v-275h-53v65q-64 -75 -157 -75q-67 0 -111 40t-44 100q0 62 47 99t138 41l127 5v25q0 61 -36.5 94t-93.5 33q-46 0 -84.5 -14.5t-52.5 -25.5l-20 38q70 47 155 47q91 0 140 -52q45 -50 45 -145zM342 120v115l-132 -8q-128 -7 -128 -97
q0 -40 29.5 -67.5t83.5 -27.5q51 0 88.5 26t58.5 59z" />
    <glyph glyph-name="acircumflex" unicode="&#xe2;" horiz-adv-x="460" 
d="M227 690l95 -145h-45l-65 105l-65 -105h-45l95 145h30zM395 275v-275h-53v65q-64 -75 -157 -75q-67 0 -111 40t-44 100q0 62 47 99t138 41l127 5v25q0 61 -36.5 94t-93.5 33q-46 0 -84.5 -14.5t-52.5 -25.5l-20 38q70 47 155 47q91 0 140 -52q45 -50 45 -145zM342 120
v115l-132 -8q-128 -7 -128 -97q0 -40 29.5 -67.5t83.5 -27.5q51 0 88.5 26t58.5 59z" />
    <glyph glyph-name="atilde" unicode="&#xe3;" horiz-adv-x="460" 
d="M337 662l33 -10q-4 -36 -27 -56.5t-51 -20.5q-12 0 -24 3t-18.5 6t-15 8t-9.5 5l-13 8q-12 8 -24 12.5t-23 4.5q-18 0 -29.5 -12.5t-13.5 -29.5l-32 10q4 36 26.5 56.5t50.5 20.5q10 0 19.5 -1.5t17 -4.5t13 -6l11.5 -6t7 -4l13 -8q12 -8 24 -12.5t23 -4.5q18 0 29 13
t13 29zM395 275v-275h-53v65q-64 -75 -157 -75q-67 0 -111 40t-44 100q0 62 47 99t138 41l127 5v25q0 61 -36.5 94t-93.5 33q-46 0 -84.5 -14.5t-52.5 -25.5l-20 38q70 47 155 47q91 0 140 -52q45 -50 45 -145zM342 120v115l-132 -8q-128 -7 -128 -97q0 -40 29.5 -67.5
t83.5 -27.5q51 0 88.5 26t58.5 59z" />
    <glyph glyph-name="adieresis" unicode="&#xe4;" horiz-adv-x="460" 
d="M322 617q0 -20 -12.5 -32.5t-29.5 -12.5q-18 0 -30.5 12.5t-12.5 32.5t12.5 32.5t30.5 12.5q17 0 29.5 -12.5t12.5 -32.5zM187 617q0 -20 -12.5 -32.5t-29.5 -12.5q-18 0 -30.5 12.5t-12.5 32.5t12.5 32.5t30.5 12.5q17 0 29.5 -12.5t12.5 -32.5zM395 275v-275h-53v65
q-64 -75 -157 -75q-67 0 -111 40t-44 100q0 62 47 99t138 41l127 5v25q0 61 -36.5 94t-93.5 33q-46 0 -84.5 -14.5t-52.5 -25.5l-20 38q70 47 155 47q91 0 140 -52q45 -50 45 -145zM342 120v115l-132 -8q-128 -7 -128 -97q0 -40 29.5 -67.5t83.5 -27.5q51 0 88.5 26t58.5 59
z" />
    <glyph glyph-name="aring" unicode="&#xe5;" horiz-adv-x="460" 
d="M302 632q0 -38 -26 -64t-64 -26t-64 26t-26 64t26 64t64 26t64 -26t26 -64zM395 275v-275h-53v65q-64 -75 -157 -75q-67 0 -111 40t-44 100q0 62 47 99t138 41l127 5v25q0 61 -36.5 94t-93.5 33q-46 0 -84.5 -14.5t-52.5 -25.5l-20 38q70 47 155 47q91 0 140 -52
q45 -50 45 -145zM265 632q0 23 -15.5 39t-37.5 16t-37 -16t-15 -39t15 -39t37 -16t37.5 16t15.5 39zM342 120v115l-132 -8q-128 -7 -128 -97q0 -40 29.5 -67.5t83.5 -27.5q51 0 88.5 26t58.5 59z" />
    <glyph glyph-name="ae" unicode="&#xe6;" horiz-adv-x="810" 
d="M775 255l-3 -35h-377q4 -84 49 -133.5t123 -49.5q47 0 87.5 15t57.5 30l18 15l25 -37q-2 -3 -7 -7.5t-22 -16.5t-37.5 -21.5t-54.5 -17t-72 -7.5q-22 0 -42 3t-35.5 9t-29.5 13t-25 16t-19 16.5t-15 16.5t-10.5 14l-7.5 11l-3 6q-79 -105 -190 -105q-67 0 -111 40
t-44 100q0 62 47 99t138 41l127 5v25q0 61 -36.5 94t-93.5 33q-46 0 -84.5 -14.5t-52.5 -25.5l-20 38q70 47 155 47q91 0 140 -52q12 -13 19.5 -25.5t8.5 -18.5l2 -6q30 48 79 75t106 27q91 0 150.5 -61.5t59.5 -155.5zM397 265h325q0 24 -9 51t-27.5 52.5t-50.5 42
t-73 16.5q-78 0 -120 -51.5t-45 -110.5zM356 135q-14 42 -14 100l-132 -8q-128 -7 -128 -97q0 -40 29.5 -67.5t83.5 -27.5q53 0 98.5 31.5t62.5 68.5z" />
    <glyph glyph-name="ccedilla" unicode="&#xe7;" horiz-adv-x="470" 
d="M427 105l30 -35q-62 -73 -167 -79l-78 -136h-65l97 136q-87 9 -145.5 76t-58.5 165q0 104 69 172t163 68q121 0 183 -80l-33 -35q-59 68 -152 68q-72 0 -123.5 -53t-51.5 -137q0 -87 49.5 -142.5t127.5 -55.5q47 0 85.5 17t54.5 34z" />
    <glyph glyph-name="egrave" unicode="&#xe8;" horiz-adv-x="510" 
d="M215 690l95 -145h-45l-115 145h65zM475 255l-3 -35h-377q4 -84 49 -133.5t123 -49.5q47 0 87.5 15t57.5 30l18 15l25 -37q-2 -3 -7 -7.5t-22 -16.5t-37.5 -21.5t-54.5 -17t-72 -7.5q-100 0 -161 67.5t-61 174.5q0 105 65.5 172.5t159.5 67.5q91 0 150.5 -61.5
t59.5 -155.5zM97 265h325q0 24 -9 51t-27.5 52.5t-50.5 42t-73 16.5q-78 0 -120 -51.5t-45 -110.5z" />
    <glyph glyph-name="eacute" unicode="&#xe9;" horiz-adv-x="510" 
d="M315 690h65l-115 -145h-45zM475 255l-3 -35h-377q4 -84 49 -133.5t123 -49.5q47 0 87.5 15t57.5 30l18 15l25 -37q-2 -3 -7 -7.5t-22 -16.5t-37.5 -21.5t-54.5 -17t-72 -7.5q-100 0 -161 67.5t-61 174.5q0 105 65.5 172.5t159.5 67.5q91 0 150.5 -61.5t59.5 -155.5z
M97 265h325q0 24 -9 51t-27.5 52.5t-50.5 42t-73 16.5q-78 0 -120 -51.5t-45 -110.5z" />
    <glyph glyph-name="ecircumflex" unicode="&#xea;" horiz-adv-x="510" 
d="M280 690l95 -145h-45l-65 105l-65 -105h-45l95 145h30zM475 255l-3 -35h-377q4 -84 49 -133.5t123 -49.5q47 0 87.5 15t57.5 30l18 15l25 -37q-2 -3 -7 -7.5t-22 -16.5t-37.5 -21.5t-54.5 -17t-72 -7.5q-100 0 -161 67.5t-61 174.5q0 105 65.5 172.5t159.5 67.5
q91 0 150.5 -61.5t59.5 -155.5zM97 265h325q0 24 -9 51t-27.5 52.5t-50.5 42t-73 16.5q-78 0 -120 -51.5t-45 -110.5z" />
    <glyph glyph-name="edieresis" unicode="&#xeb;" horiz-adv-x="510" 
d="M375 617q0 -20 -12.5 -32.5t-30.5 -12.5q-17 0 -29.5 12.5t-12.5 32.5t12.5 32.5t29.5 12.5q18 0 30.5 -12.5t12.5 -32.5zM240 617q0 -20 -12.5 -32.5t-30.5 -12.5q-17 0 -29.5 12.5t-12.5 32.5t12.5 32.5t29.5 12.5q18 0 30.5 -12.5t12.5 -32.5zM475 255l-3 -35h-377
q4 -84 49 -133.5t123 -49.5q47 0 87.5 15t57.5 30l18 15l25 -37q-2 -3 -7 -7.5t-22 -16.5t-37.5 -21.5t-54.5 -17t-72 -7.5q-100 0 -161 67.5t-61 174.5q0 105 65.5 172.5t159.5 67.5q91 0 150.5 -61.5t59.5 -155.5zM97 265h325q0 24 -9 51t-27.5 52.5t-50.5 42t-73 16.5
q-78 0 -120 -51.5t-45 -110.5z" />
    <glyph glyph-name="igrave" unicode="&#xec;" horiz-adv-x="212" 
d="M37 690l95 -145h-45l-115 145h65zM132 464v-464h-52v464h52z" />
    <glyph glyph-name="iacute" unicode="&#xed;" horiz-adv-x="212" 
d="M175 690h65l-115 -145h-45zM132 464v-464h-52v464h52z" />
    <glyph glyph-name="icircumflex" unicode="&#xee;" horiz-adv-x="212" 
d="M121 690l95 -145h-45l-65 105l-65 -105h-45l95 145h30zM132 464v-464h-52v464h52z" />
    <glyph glyph-name="idieresis" unicode="&#xef;" horiz-adv-x="212" 
d="M216 617q0 -20 -12.5 -32.5t-29.5 -12.5q-18 0 -30.5 12.5t-12.5 32.5t12.5 32.5t30.5 12.5q17 0 29.5 -12.5t12.5 -32.5zM81 617q0 -20 -12.5 -32.5t-29.5 -12.5q-18 0 -30.5 12.5t-12.5 32.5t12.5 32.5t30.5 12.5q17 0 29.5 -12.5t12.5 -32.5zM132 464v-464h-52v464h52
z" />
    <glyph glyph-name="eth" unicode="&#xf0;" horiz-adv-x="555" 
d="M515 225q0 -98 -69.5 -166.5t-170.5 -68.5q-100 0 -167.5 68.5t-67.5 166.5t69 167.5t166 69.5q89 0 155 -60q-53 111 -158 203l-117 -78l-23 33l110 72q-49 42 -102 75l30 30q65 -39 112 -80l123 80l22 -32l-115 -75q67 -56 113 -125q90 -135 90 -280zM460 227
q0 82 -51.5 136t-131.5 54t-131 -54t-51 -136q0 -81 51.5 -135.5t130.5 -54.5q80 0 131.5 54.5t51.5 135.5z" />
    <glyph glyph-name="ntilde" unicode="&#xf1;" horiz-adv-x="510" 
d="M360 662l32 -10q-4 -36 -26.5 -56.5t-50.5 -20.5q-10 0 -19.5 1.5t-17 4.5t-13 6l-11.5 6t-7 4l-13 8q-12 8 -24 12.5t-23 4.5q-18 0 -29 -13t-13 -29l-33 10q4 36 27 56.5t51 20.5q12 0 24 -3t18.5 -6t15 -8t9.5 -5l13 -8q12 -8 24 -12.5t23 -4.5q18 0 29.5 12.5
t13.5 29.5zM441 277v-277h-53v275q0 32 -4 56t-15 47.5t-34.5 36t-59.5 12.5q-72 0 -110 -55t-38 -142v-230h-52v464h52v-86q17 42 58.5 68t91.5 26q93 0 128.5 -51t35.5 -144z" />
    <glyph glyph-name="ograve" unicode="&#xf2;" horiz-adv-x="555" 
d="M227 690l95 -145h-45l-115 145h65zM515 230q0 -104 -68.5 -172t-169.5 -68q-100 0 -168.5 68t-68.5 172t68.5 173t168.5 69q101 0 169.5 -69t68.5 -173zM460 232q0 83 -50 139t-133 56q-82 0 -132 -56t-50 -139t50 -139t132 -56q83 0 133 56t50 139z" />
    <glyph glyph-name="oacute" unicode="&#xf3;" horiz-adv-x="555" 
d="M327 690h65l-115 -145h-45zM515 230q0 -104 -68.5 -172t-169.5 -68q-100 0 -168.5 68t-68.5 172t68.5 173t168.5 69q101 0 169.5 -69t68.5 -173zM460 232q0 83 -50 139t-133 56q-82 0 -132 -56t-50 -139t50 -139t132 -56q83 0 133 56t50 139z" />
    <glyph glyph-name="ocircumflex" unicode="&#xf4;" horiz-adv-x="555" 
d="M292 690l95 -145h-45l-65 105l-65 -105h-45l95 145h30zM515 230q0 -104 -68.5 -172t-169.5 -68q-100 0 -168.5 68t-68.5 172t68.5 173t168.5 69q101 0 169.5 -69t68.5 -173zM460 232q0 83 -50 139t-133 56q-82 0 -132 -56t-50 -139t50 -139t132 -56q83 0 133 56t50 139z
" />
    <glyph glyph-name="otilde" unicode="&#xf5;" horiz-adv-x="555" 
d="M385 662l32 -10q-4 -36 -26.5 -56.5t-50.5 -20.5q-10 0 -19.5 1.5t-17 4.5t-13 6l-11.5 6t-7 4l-12 8q-13 8 -25 12.5t-23 4.5q-18 0 -29 -13t-13 -29l-33 10q4 36 27 56.5t51 20.5q12 0 24 -3t18.5 -6t15 -8t9.5 -5l12 -8q13 -8 25 -12.5t23 -4.5q18 0 29.5 12.5
t13.5 29.5zM515 230q0 -104 -68.5 -172t-169.5 -68q-100 0 -168.5 68t-68.5 172t68.5 173t168.5 69q101 0 169.5 -69t68.5 -173zM460 232q0 83 -50 139t-133 56q-82 0 -132 -56t-50 -139t50 -139t132 -56q83 0 133 56t50 139z" />
    <glyph glyph-name="odieresis" unicode="&#xf6;" horiz-adv-x="555" 
d="M387 617q0 -20 -12.5 -32.5t-29.5 -12.5q-18 0 -30.5 12.5t-12.5 32.5t12.5 32.5t30.5 12.5q17 0 29.5 -12.5t12.5 -32.5zM252 617q0 -20 -12.5 -32.5t-29.5 -12.5q-18 0 -30.5 12.5t-12.5 32.5t12.5 32.5t30.5 12.5q17 0 29.5 -12.5t12.5 -32.5zM515 230
q0 -104 -68.5 -172t-169.5 -68q-100 0 -168.5 68t-68.5 172t68.5 173t168.5 69q101 0 169.5 -69t68.5 -173zM460 232q0 83 -50 139t-133 56q-82 0 -132 -56t-50 -139t50 -139t132 -56q83 0 133 56t50 139z" />
    <glyph glyph-name="divide" unicode="&#xf7;" horiz-adv-x="645" 
d="M368 491q0 -19 -13 -32.5t-33 -13.5q-19 0 -32.5 13.5t-13.5 32.5t13.5 32.5t32.5 13.5t32.5 -13.5t13.5 -32.5zM575 367v-45h-505v45h505zM368 199q0 -19 -13 -32.5t-33 -13.5q-19 0 -32.5 13.5t-13.5 32.5t13.5 32.5t32.5 13.5t32.5 -13.5t13.5 -32.5z" />
    <glyph glyph-name="oslash" unicode="&#xf8;" horiz-adv-x="555" 
d="M495 480l30 -30l-63 -64q53 -66 53 -156q0 -104 -68.5 -172t-169.5 -68q-89 0 -155 55l-62 -63l-30 30l63 64q-53 64 -53 154q0 104 68.5 173t168.5 69q91 0 155 -55zM130 113l268 270q-49 44 -121 44q-82 0 -132 -56t-50 -139q0 -69 35 -119zM460 232q0 68 -34 119
l-268 -270q49 -44 119 -44q83 0 133 56t50 139z" />
    <glyph glyph-name="ugrave" unicode="&#xf9;" horiz-adv-x="507" 
d="M192 690l95 -145h-45l-115 145h65zM432 464v-464h-52v75q-46 -85 -150 -85q-85 0 -125 52q-35 45 -35 146v276h52v-284q0 -30 4 -52.5t15 -45.5t35.5 -35t60.5 -12q72 0 107.5 52.5t35.5 127.5v249h52z" />
    <glyph glyph-name="uacute" unicode="&#xfa;" horiz-adv-x="507" 
d="M310 690h65l-115 -145h-45zM432 464v-464h-52v75q-46 -85 -150 -85q-85 0 -125 52q-35 45 -35 146v276h52v-284q0 -30 4 -52.5t15 -45.5t35.5 -35t60.5 -12q72 0 107.5 52.5t35.5 127.5v249h52z" />
    <glyph glyph-name="ucircumflex" unicode="&#xfb;" horiz-adv-x="507" 
d="M266 690l95 -145h-45l-65 105l-65 -105h-45l95 145h30zM432 464v-464h-52v75q-46 -85 -150 -85q-85 0 -125 52q-35 45 -35 146v276h52v-284q0 -30 4 -52.5t15 -45.5t35.5 -35t60.5 -12q72 0 107.5 52.5t35.5 127.5v249h52z" />
    <glyph glyph-name="udieresis" unicode="&#xfc;" horiz-adv-x="507" 
d="M361 617q0 -20 -12.5 -32.5t-29.5 -12.5q-18 0 -30.5 12.5t-12.5 32.5t12.5 32.5t30.5 12.5q17 0 29.5 -12.5t12.5 -32.5zM226 617q0 -20 -12.5 -32.5t-29.5 -12.5q-18 0 -30.5 12.5t-12.5 32.5t12.5 32.5t30.5 12.5q17 0 29.5 -12.5t12.5 -32.5zM432 464v-464h-52v75
q-46 -85 -150 -85q-85 0 -125 52q-35 45 -35 146v276h52v-284q0 -30 4 -52.5t15 -45.5t35.5 -35t60.5 -12q72 0 107.5 52.5t35.5 127.5v249h52z" />
    <glyph glyph-name="yacute" unicode="&#xfd;" horiz-adv-x="435" 
d="M270 690h65l-115 -145h-45zM380 464h55l-235 -572q-36 -87 -104 -87q-14 0 -28 3t-21 6l-7 3l10 50q18 -10 46 -10q23 0 38.5 14.5t30.5 58.5l27 77l-187 457h55l160 -404z" />
    <glyph glyph-name="thorn" unicode="&#xfe;" horiz-adv-x="575" 
d="M535 230q0 -105 -63 -172.5t-165 -67.5q-113 0 -175 97v-277h-52v881h52v-317q58 98 173 98q105 0 167.5 -68.5t62.5 -173.5zM480 230q0 84 -47 140.5t-128 56.5q-82 0 -128.5 -56t-46.5 -141q0 -83 46.5 -138t128.5 -55t128.5 54.5t46.5 138.5z" />
    <glyph glyph-name="ydieresis" unicode="&#xff;" horiz-adv-x="435" 
d="M330 622q0 -20 -12.5 -32.5t-30.5 -12.5q-17 0 -29.5 12.5t-12.5 32.5t12.5 32.5t29.5 12.5q18 0 30.5 -12.5t12.5 -32.5zM195 622q0 -20 -12.5 -32.5t-30.5 -12.5q-17 0 -29.5 12.5t-12.5 32.5t12.5 32.5t29.5 12.5q18 0 30.5 -12.5t12.5 -32.5zM380 464h55l-235 -572
q-36 -87 -104 -87q-14 0 -28 3t-21 6l-7 3l10 50q18 -10 46 -10q23 0 38.5 14.5t30.5 58.5l27 77l-187 457h55l160 -404z" />
    <glyph glyph-name="Amacron" unicode="&#x100;" horiz-adv-x="630" 
d="M330 692l295 -692h-63l-85 207h-329l-86 -207h-57l295 692h30zM168 257h288l-144 353zM422 836v-40h-220v40h220z" />
    <glyph glyph-name="amacron" unicode="&#x101;" horiz-adv-x="460" 
d="M395 275v-275h-53v65q-64 -75 -157 -75q-67 0 -111 40t-44 100q0 62 47 99t138 41l127 5v25q0 61 -36.5 94t-93.5 33q-46 0 -84.5 -14.5t-52.5 -25.5l-20 38q70 47 155 47q91 0 140 -52q45 -50 45 -145zM342 120v115l-132 -8q-128 -7 -128 -97q0 -40 29.5 -67.5
t83.5 -27.5q51 0 88.5 26t58.5 59zM330 610v-40h-220v40h220z" />
    <glyph glyph-name="Abreve" unicode="&#x102;" horiz-adv-x="630" 
d="M330 692l295 -692h-63l-85 207h-329l-86 -207h-57l295 692h30zM168 257h288l-144 353zM412 901h35q-7 -56 -42.5 -85.5t-92.5 -29.5t-92.5 29.5t-42.5 85.5h35q14 -70 100 -70t100 70z" />
    <glyph glyph-name="abreve" unicode="&#x103;" horiz-adv-x="460" 
d="M395 275v-275h-53v65q-64 -75 -157 -75q-67 0 -111 40t-44 100q0 62 47 99t138 41l127 5v25q0 61 -36.5 94t-93.5 33q-46 0 -84.5 -14.5t-52.5 -25.5l-20 38q70 47 155 47q91 0 140 -52q45 -50 45 -145zM342 120v115l-132 -8q-128 -7 -128 -97q0 -40 29.5 -67.5
t83.5 -27.5q51 0 88.5 26t58.5 59zM320 675h35q-7 -56 -42.5 -85.5t-92.5 -29.5t-92.5 29.5t-42.5 85.5h35q14 -70 100 -70t100 70z" />
    <glyph glyph-name="Aogonek" unicode="&#x104;" horiz-adv-x="630" 
d="M661 -145l13 -25q-40 -40 -95 -40q-42 0 -68.5 24.5t-26.5 65.5q0 62 78 120l-85 207h-329l-86 -207h-57l295 692h30l295 -692q-42 -17 -68 -50t-26 -63q0 -26 17 -40.5t43 -14.5q38 0 70 23zM168 257h288l-144 353z" />
    <glyph glyph-name="aogonek" unicode="&#x105;" horiz-adv-x="460" 
d="M441 -145l13 -25q-40 -40 -95 -40q-42 0 -68.5 24.5t-26.5 65.5q0 62 78 120v65q-64 -75 -157 -75q-67 0 -111 40t-44 100q0 62 47 99t138 41l127 5v25q0 61 -36.5 94t-93.5 33q-46 0 -84.5 -14.5t-52.5 -25.5l-20 38q70 47 155 47q91 0 140 -52q45 -50 45 -145v-275
q-35 -17 -59.5 -50.5t-24.5 -62.5q0 -26 17 -40.5t43 -14.5q38 0 70 23zM342 120v115l-132 -8q-128 -7 -128 -97q0 -40 29.5 -67.5t83.5 -27.5q51 0 88.5 26t58.5 59z" />
    <glyph glyph-name="Cacute" unicode="&#x106;" horiz-adv-x="675" 
d="M610 130l35 -35q-97 -107 -255 -107q-151 0 -249.5 99.5t-98.5 256.5q0 156 100 256t248 100q150 0 250 -100l-35 -40q-29 37 -87 64t-128 27q-128 0 -209 -85t-81 -220t81 -221t209 -86q137 0 220 91zM412 916h65l-115 -145h-45z" />
    <glyph glyph-name="cacute" unicode="&#x107;" horiz-adv-x="470" 
d="M427 105l30 -35q-68 -80 -190 -80q-95 0 -161 68.5t-66 173.5q0 104 69 172t163 68q121 0 183 -80l-33 -35q-59 68 -152 68q-72 0 -123.5 -53t-51.5 -137q0 -87 49.5 -142.5t127.5 -55.5q47 0 85.5 17t54.5 34zM293 690h65l-115 -145h-45z" />
    <glyph glyph-name="Ccircumflex" unicode="&#x108;" horiz-adv-x="675" 
d="M610 130l35 -35q-97 -107 -255 -107q-151 0 -249.5 99.5t-98.5 256.5q0 156 100 256t248 100q150 0 250 -100l-35 -40q-29 37 -87 64t-128 27q-128 0 -209 -85t-81 -220t81 -221t209 -86q137 0 220 91zM392 916l95 -145h-45l-65 105l-65 -105h-45l95 145h30z" />
    <glyph glyph-name="ccircumflex" unicode="&#x109;" horiz-adv-x="470" 
d="M427 105l30 -35q-68 -80 -190 -80q-95 0 -161 68.5t-66 173.5q0 104 69 172t163 68q121 0 183 -80l-33 -35q-59 68 -152 68q-72 0 -123.5 -53t-51.5 -137q0 -87 49.5 -142.5t127.5 -55.5q47 0 85.5 17t54.5 34zM278 690l95 -145h-45l-65 105l-65 -105h-45l95 145h30z" />
    <glyph glyph-name="Cdotaccent" unicode="&#x10a;" horiz-adv-x="675" 
d="M610 130l35 -35q-97 -107 -255 -107q-151 0 -249.5 99.5t-98.5 256.5q0 156 100 256t248 100q150 0 250 -100l-35 -40q-29 37 -87 64t-128 27q-128 0 -209 -85t-81 -220t81 -221t209 -86q137 0 220 91zM418 844q0 -19 -12.5 -31.5t-31.5 -12.5t-31.5 12.5t-12.5 31.5
t12.5 31.5t31.5 12.5t31.5 -12.5t12.5 -31.5z" />
    <glyph glyph-name="cdotaccent" unicode="&#x10b;" horiz-adv-x="470" 
d="M427 105l30 -35q-68 -80 -190 -80q-95 0 -161 68.5t-66 173.5q0 104 69 172t163 68q121 0 183 -80l-33 -35q-59 68 -152 68q-72 0 -123.5 -53t-51.5 -137q0 -87 49.5 -142.5t127.5 -55.5q47 0 85.5 17t54.5 34zM308 618q0 -19 -12.5 -31.5t-31.5 -12.5t-31.5 12.5
t-12.5 31.5t12.5 31.5t31.5 12.5t31.5 -12.5t12.5 -31.5z" />
    <glyph glyph-name="Ccaron" unicode="&#x10c;" horiz-adv-x="675" 
d="M610 130l35 -35q-97 -107 -255 -107q-151 0 -249.5 99.5t-98.5 256.5q0 156 100 256t248 100q150 0 250 -100l-35 -40q-29 37 -87 64t-128 27q-128 0 -209 -85t-81 -220t81 -221t209 -86q137 0 220 91zM436 916h45l-95 -145h-30l-95 145h45l65 -105z" />
    <glyph glyph-name="ccaron" unicode="&#x10d;" horiz-adv-x="470" 
d="M427 105l30 -35q-68 -80 -190 -80q-95 0 -161 68.5t-66 173.5q0 104 69 172t163 68q121 0 183 -80l-33 -35q-59 68 -152 68q-72 0 -123.5 -53t-51.5 -137q0 -87 49.5 -142.5t127.5 -55.5q47 0 85.5 17t54.5 34zM329 690h45l-95 -145h-30l-95 145h45l65 -105z" />
    <glyph glyph-name="Dcaron" unicode="&#x10e;" horiz-adv-x="675" 
d="M632 345q0 -145 -105 -250q-39 -39 -104 -67t-148 -28h-190v690h190q83 0 148 -28t104 -67q105 -105 105 -250zM576 345q0 133 -96 222q-79 74 -210 74h-131v-592h131q132 0 210 73q96 89 96 223zM366 916h45l-95 -145h-30l-95 145h45l65 -105z" />
    <glyph glyph-name="dcaron" unicode="&#x10f;" horiz-adv-x="641" 
d="M40 232q0 105 63 172.5t165 67.5q111 0 174 -95v313h53v-690h-53v86q-57 -96 -172 -96q-103 0 -166.5 68.5t-63.5 173.5zM95 232q0 -84 47 -139.5t128 -55.5q82 0 128.5 55.5t46.5 139.5t-46.5 139.5t-128.5 55.5q-81 0 -128 -55.5t-47 -139.5zM611 690h60l-80 -190h-40z
" />
    <glyph glyph-name="Dcroat" unicode="&#x110;" horiz-adv-x="675" 
d="M632 345q0 -145 -105 -250q-39 -39 -104 -67t-148 -28h-190v340h-70v49h70v301h190q83 0 148 -28t104 -67q105 -105 105 -250zM576 345q0 133 -96 222q-79 74 -210 74h-131v-252h201v-49h-201v-291h131q132 0 210 73q96 89 96 223z" />
    <glyph glyph-name="dcroat" unicode="&#x111;" horiz-adv-x="575" 
d="M565 623v-50h-70v-573h-53v86q-57 -96 -172 -96q-103 0 -166.5 68.5t-63.5 173.5t63 172.5t165 67.5q111 0 174 -95v196h-192v50h192v67h53v-67h70zM95 232q0 -84 47 -139.5t128 -55.5q82 0 128.5 55.5t46.5 139.5t-46.5 139.5t-128.5 55.5q-81 0 -128 -55.5t-47 -139.5z
" />
    <glyph glyph-name="Emacron" unicode="&#x112;" horiz-adv-x="515" 
d="M467 49v-49h-382v690h375v-49h-321v-250h303v-49h-303v-293h328zM391 836v-40h-220v40h220z" />
    <glyph glyph-name="emacron" unicode="&#x113;" horiz-adv-x="510" 
d="M475 255l-3 -35h-377q4 -84 49 -133.5t123 -49.5q47 0 87.5 15t57.5 30l18 15l25 -37q-2 -3 -7 -7.5t-22 -16.5t-37.5 -21.5t-54.5 -17t-72 -7.5q-100 0 -161 67.5t-61 174.5q0 105 65.5 172.5t159.5 67.5q91 0 150.5 -61.5t59.5 -155.5zM97 265h325q0 24 -9 51
t-27.5 52.5t-50.5 42t-73 16.5q-78 0 -120 -51.5t-45 -110.5zM373 610v-40h-220v40h220z" />
    <glyph glyph-name="Ebreve" unicode="&#x114;" horiz-adv-x="515" 
d="M467 49v-49h-382v690h375v-49h-321v-250h303v-49h-303v-293h328zM377 901h35q-7 -56 -42.5 -85.5t-92.5 -29.5t-92.5 29.5t-42.5 85.5h35q14 -70 100 -70t100 70z" />
    <glyph glyph-name="ebreve" unicode="&#x115;" horiz-adv-x="510" 
d="M475 255l-3 -35h-377q4 -84 49 -133.5t123 -49.5q47 0 87.5 15t57.5 30l18 15l25 -37q-2 -3 -7 -7.5t-22 -16.5t-37.5 -21.5t-54.5 -17t-72 -7.5q-100 0 -161 67.5t-61 174.5q0 105 65.5 172.5t159.5 67.5q91 0 150.5 -61.5t59.5 -155.5zM97 265h325q0 24 -9 51
t-27.5 52.5t-50.5 42t-73 16.5q-78 0 -120 -51.5t-45 -110.5zM355 675h35q-7 -56 -42.5 -85.5t-92.5 -29.5t-92.5 29.5t-42.5 85.5h35q14 -70 100 -70t100 70z" />
    <glyph glyph-name="Edotaccent" unicode="&#x116;" horiz-adv-x="515" 
d="M467 49v-49h-382v690h375v-49h-321v-250h303v-49h-303v-293h328zM321 844q0 -19 -12.5 -31.5t-31.5 -12.5t-31.5 12.5t-12.5 31.5t12.5 31.5t31.5 12.5t31.5 -12.5t12.5 -31.5z" />
    <glyph glyph-name="edotaccent" unicode="&#x117;" horiz-adv-x="510" 
d="M475 255l-3 -35h-377q4 -84 49 -133.5t123 -49.5q47 0 87.5 15t57.5 30l18 15l25 -37q-2 -3 -7 -7.5t-22 -16.5t-37.5 -21.5t-54.5 -17t-72 -7.5q-100 0 -161 67.5t-61 174.5q0 105 65.5 172.5t159.5 67.5q91 0 150.5 -61.5t59.5 -155.5zM97 265h325q0 24 -9 51
t-27.5 52.5t-50.5 42t-73 16.5q-78 0 -120 -51.5t-45 -110.5zM299 618q0 -19 -12.5 -31.5t-31.5 -12.5t-31.5 12.5t-12.5 31.5t12.5 31.5t31.5 12.5t31.5 -12.5t12.5 -31.5z" />
    <glyph glyph-name="Eogonek" unicode="&#x118;" horiz-adv-x="515" 
d="M454 -145l13 -25q-40 -40 -95 -40q-42 0 -68.5 24.5t-26.5 65.5q0 62 78 120h-270v690h375v-49h-321v-250h303v-49h-303v-293h328v-49h-63q-32 -19 -56 -52t-24 -61q0 -26 17 -40.5t43 -14.5q38 0 70 23z" />
    <glyph glyph-name="eogonek" unicode="&#x119;" horiz-adv-x="510" 
d="M419 -137l13 -25q-40 -40 -95 -40q-42 0 -68.5 24.5t-26.5 65.5q0 52 58 104q-24 -2 -38 -2q-100 0 -161 67.5t-61 174.5q0 105 65.5 172.5t159.5 67.5q91 0 150.5 -61.5t59.5 -155.5l-3 -35h-377q4 -84 49 -133.5t123 -49.5q47 0 87.5 15t57.5 30l18 15l25 -37
q-28 -34 -90 -54q-31 -19 -53.5 -51.5t-22.5 -59.5q0 -26 17 -40.5t43 -14.5q38 0 70 23zM97 265h325q0 24 -9 51t-27.5 52.5t-50.5 42t-73 16.5q-78 0 -120 -51.5t-45 -110.5z" />
    <glyph glyph-name="Ecaron" unicode="&#x11a;" horiz-adv-x="515" 
d="M467 49v-49h-382v690h375v-49h-321v-250h303v-49h-303v-293h328zM342 916h45l-95 -145h-30l-95 145h45l65 -105z" />
    <glyph glyph-name="ecaron" unicode="&#x11b;" horiz-adv-x="510" 
d="M475 255l-3 -35h-377q4 -84 49 -133.5t123 -49.5q47 0 87.5 15t57.5 30l18 15l25 -37q-2 -3 -7 -7.5t-22 -16.5t-37.5 -21.5t-54.5 -17t-72 -7.5q-100 0 -161 67.5t-61 174.5q0 105 65.5 172.5t159.5 67.5q91 0 150.5 -61.5t59.5 -155.5zM97 265h325q0 24 -9 51
t-27.5 52.5t-50.5 42t-73 16.5q-78 0 -120 -51.5t-45 -110.5zM320 690h45l-95 -145h-30l-95 145h45l65 -105z" />
    <glyph glyph-name="Gcircumflex" unicode="&#x11c;" horiz-adv-x="750" 
d="M675 351v-256q-3 -4 -10 -11.5t-32.5 -26t-55.5 -32.5t-80.5 -25.5t-106.5 -11.5q-150 0 -249 101.5t-99 255.5q0 153 98.5 254t246.5 101q171 0 275 -120l-37 -40q-93 111 -238 111q-124 0 -205.5 -83.5t-81.5 -222.5t84 -222.5t211 -83.5q46 0 86.5 8t65 19t42.5 22
t25 19l8 8v187h-212v49h265zM390 916l95 -145h-45l-65 105l-65 -105h-45l95 145h30z" />
    <glyph glyph-name="gcircumflex" unicode="&#x11d;" horiz-adv-x="570" 
d="M495 464v-364q0 -139 -38 -200q-63 -100 -200 -100q-53 0 -102 17.5t-71 34.5l-22 18l30 40q22 -22 70.5 -42.5t99.5 -20.5q96 0 140 60q40 56 40 158v34q-56 -99 -175 -99q-95 0 -161 65t-66 171t66 171t161 65q60 0 105.5 -26.5t69.5 -69.5v88h53zM445 237
q0 82 -46 135.5t-129 53.5t-129 -53.5t-46 -135.5t46 -136t129 -54t129 54t46 136zM285 690l95 -145h-45l-65 105l-65 -105h-45l95 145h30z" />
    <glyph glyph-name="Gbreve" unicode="&#x11e;" horiz-adv-x="750" 
d="M675 351v-256q-3 -4 -10 -11.5t-32.5 -26t-55.5 -32.5t-80.5 -25.5t-106.5 -11.5q-150 0 -249 101.5t-99 255.5q0 153 98.5 254t246.5 101q171 0 275 -120l-37 -40q-93 111 -238 111q-124 0 -205.5 -83.5t-81.5 -222.5t84 -222.5t211 -83.5q46 0 86.5 8t65 19t42.5 22
t25 19l8 8v187h-212v49h265zM475 901h35q-7 -56 -42.5 -85.5t-92.5 -29.5t-92.5 29.5t-42.5 85.5h35q14 -70 100 -70t100 70z" />
    <glyph glyph-name="gbreve" unicode="&#x11f;" horiz-adv-x="570" 
d="M495 464v-364q0 -139 -38 -200q-63 -100 -200 -100q-53 0 -102 17.5t-71 34.5l-22 18l30 40q22 -22 70.5 -42.5t99.5 -20.5q96 0 140 60q40 56 40 158v34q-56 -99 -175 -99q-95 0 -161 65t-66 171t66 171t161 65q60 0 105.5 -26.5t69.5 -69.5v88h53zM445 237
q0 82 -46 135.5t-129 53.5t-129 -53.5t-46 -135.5t46 -136t129 -54t129 54t46 136zM370 675h35q-7 -56 -42.5 -85.5t-92.5 -29.5t-92.5 29.5t-42.5 85.5h35q14 -70 100 -70t100 70z" />
    <glyph glyph-name="Gdotaccent" unicode="&#x120;" horiz-adv-x="750" 
d="M675 351v-256q-3 -4 -10 -11.5t-32.5 -26t-55.5 -32.5t-80.5 -25.5t-106.5 -11.5q-150 0 -249 101.5t-99 255.5q0 153 98.5 254t246.5 101q171 0 275 -120l-37 -40q-93 111 -238 111q-124 0 -205.5 -83.5t-81.5 -222.5t84 -222.5t211 -83.5q46 0 86.5 8t65 19t42.5 22
t25 19l8 8v187h-212v49h265zM419 844q0 -19 -12.5 -31.5t-31.5 -12.5t-31.5 12.5t-12.5 31.5t12.5 31.5t31.5 12.5t31.5 -12.5t12.5 -31.5z" />
    <glyph glyph-name="gdotaccent" unicode="&#x121;" horiz-adv-x="570" 
d="M495 464v-364q0 -139 -38 -200q-63 -100 -200 -100q-53 0 -102 17.5t-71 34.5l-22 18l30 40q22 -22 70.5 -42.5t99.5 -20.5q96 0 140 60q40 56 40 158v34q-56 -99 -175 -99q-95 0 -161 65t-66 171t66 171t161 65q60 0 105.5 -26.5t69.5 -69.5v88h53zM445 237
q0 82 -46 135.5t-129 53.5t-129 -53.5t-46 -135.5t46 -136t129 -54t129 54t46 136zM314 618q0 -19 -12.5 -31.5t-31.5 -12.5t-31.5 12.5t-12.5 31.5t12.5 31.5t31.5 12.5t31.5 -12.5t12.5 -31.5z" />
    <glyph glyph-name="Gcommaaccent" unicode="&#x122;" horiz-adv-x="750" 
d="M675 351v-256q-3 -4 -10 -11.5t-32.5 -26t-55.5 -32.5t-80.5 -25.5t-106.5 -11.5q-150 0 -249 101.5t-99 255.5q0 153 98.5 254t246.5 101q171 0 275 -120l-37 -40q-93 111 -238 111q-124 0 -205.5 -83.5t-81.5 -222.5t84 -222.5t211 -83.5q46 0 86.5 8t65 19t42.5 22
t25 19l8 8v187h-212v49h265zM362 -50h60l-55 -140h-40z" />
    <glyph glyph-name="gcommaaccent" unicode="&#x123;" horiz-adv-x="570" 
d="M495 464v-364q0 -139 -38 -200q-63 -100 -200 -100q-53 0 -102 17.5t-71 34.5l-22 18l30 40q22 -22 70.5 -42.5t99.5 -20.5q96 0 140 60q40 56 40 158v34q-56 -99 -175 -99q-95 0 -161 65t-66 171t66 171t161 65q60 0 105.5 -26.5t69.5 -69.5v88h53zM445 237
q0 82 -46 135.5t-129 53.5t-129 -53.5t-46 -135.5t46 -136t129 -54t129 54t46 136zM286 562h-60l55 140h40z" />
    <glyph glyph-name="Hcircumflex" unicode="&#x124;" horiz-adv-x="705" 
d="M620 690v-690h-54v345h-427v-345h-54v690h54v-296h427v296h54zM367 916l95 -145h-45l-65 105l-65 -105h-45l95 145h30z" />
    <glyph glyph-name="hcircumflex" unicode="&#x125;" horiz-adv-x="521" 
d="M446 277v-277h-53v275q0 32 -4 56t-15 47.5t-34.5 36t-59.5 12.5q-72 0 -110 -55t-38 -142v-230h-52v690h52v-312q17 42 58.5 68t91.5 26q93 0 128.5 -51t35.5 -144zM121 895l95 -145h-45l-65 105l-65 -105h-45l95 145h30z" />
    <glyph glyph-name="Hbar" unicode="&#x126;" horiz-adv-x="705" 
d="M700 590v-45h-80v-545h-54v345h-427v-345h-54v545h-80v45h80v100h54v-100h427v100h54v-100h80zM139 394h427v151h-427v-151z" />
    <glyph glyph-name="hbar" unicode="&#x127;" horiz-adv-x="521" 
d="M446 277v-277h-53v275q0 32 -4 56t-15 47.5t-34.5 36t-59.5 12.5q-72 0 -110 -55t-38 -142v-230h-52v573h-70v50h70v67h52v-67h193v-50h-193v-195q17 42 58.5 68t91.5 26q93 0 128.5 -51t35.5 -144z" />
    <glyph glyph-name="Itilde" unicode="&#x128;" horiz-adv-x="224" 
d="M139 690v-690h-54v690h54zM219 888l33 -10q-4 -36 -27 -56.5t-51 -20.5q-12 0 -24 3t-18.5 6t-15 8t-9.5 5l-13 8q-12 8 -24 12.5t-23 4.5q-18 0 -29.5 -12.5t-13.5 -29.5l-32 10q4 36 26.5 56.5t50.5 20.5q10 0 19.5 -1.5t17 -4.5t13 -6l11.5 -6t7 -4l13 -8
q12 -8 24 -12.5t23 -4.5q18 0 29 13t13 29z" />
    <glyph glyph-name="itilde" unicode="&#x129;" horiz-adv-x="212" 
d="M132 464v-464h-52v464h52zM213 662l33 -10q-4 -36 -27 -56.5t-51 -20.5q-12 0 -24 3t-18.5 6t-15 8t-9.5 5l-13 8q-12 8 -24 12.5t-23 4.5q-18 0 -29.5 -12.5t-13.5 -29.5l-32 10q4 36 26.5 56.5t50.5 20.5q10 0 19.5 -1.5t17 -4.5t13 -6l11.5 -6t7 -4l13 -8
q12 -8 24 -12.5t23 -4.5q18 0 29 13t13 29z" />
    <glyph glyph-name="Imacron" unicode="&#x12a;" horiz-adv-x="224" 
d="M139 690v-690h-54v690h54zM222 836v-40h-220v40h220z" />
    <glyph glyph-name="imacron" unicode="&#x12b;" horiz-adv-x="212" 
d="M132 464v-464h-52v464h52zM216 610v-40h-220v40h220z" />
    <glyph glyph-name="Ibreve" unicode="&#x12c;" horiz-adv-x="224" 
d="M139 690v-690h-54v690h54zM212 901h35q-7 -56 -42.5 -85.5t-92.5 -29.5t-92.5 29.5t-42.5 85.5h35q14 -70 100 -70t100 70z" />
    <glyph glyph-name="ibreve" unicode="&#x12d;" horiz-adv-x="212" 
d="M132 464v-464h-52v464h52zM206 675h35q-7 -56 -42.5 -85.5t-92.5 -29.5t-92.5 29.5t-42.5 85.5h35q14 -70 100 -70t100 70z" />
    <glyph glyph-name="Iogonek" unicode="&#x12e;" horiz-adv-x="224" 
d="M183 -145l13 -25q-40 -40 -95 -40q-42 0 -68.5 24.5t-26.5 65.5q0 64 79 120v690h54v-690q-36 -18 -61 -51t-25 -62q0 -26 17 -40.5t43 -14.5q38 0 70 23z" />
    <glyph glyph-name="iogonek" unicode="&#x12f;" horiz-adv-x="212" 
d="M179 -145l13 -25q-40 -40 -95 -40q-42 0 -68.5 24.5t-26.5 65.5q0 62 78 120v464h52v-464q-35 -19 -59 -51.5t-24 -61.5q0 -26 17 -40.5t43 -14.5q38 0 70 23zM149 629q0 -18 -12.5 -30.5t-30.5 -12.5t-30.5 12.5t-12.5 30.5t12.5 30.5t30.5 12.5t30.5 -12.5t12.5 -30.5z
" />
    <glyph glyph-name="Idotaccent" unicode="&#x130;" horiz-adv-x="224" 
d="M139 690v-690h-54v690h54zM156 843q0 -19 -12.5 -31.5t-31.5 -12.5t-31.5 12.5t-12.5 31.5t12.5 31.5t31.5 12.5t31.5 -12.5t12.5 -31.5z" />
    <glyph glyph-name="dotlessi" unicode="&#x131;" horiz-adv-x="212" 
d="M132 464v-464h-52v464h52z" />
    <glyph glyph-name="IJ" unicode="&#x132;" horiz-adv-x="448" 
d="M139 690v-690h-54v690h54zM363 690v-695q0 -97 -24 -140q-33 -60 -100 -60q-16 0 -30.5 2.5t-20.5 4.5l-7 3v45q18 -8 53 -8q25 0 41 11.5t23 35t9 45.5t2 56v700h54z" />
    <glyph glyph-name="ij" unicode="&#x133;" horiz-adv-x="424" 
d="M149 629q0 -18 -12.5 -30.5t-30.5 -12.5t-30.5 12.5t-12.5 30.5t12.5 30.5t30.5 12.5t30.5 -12.5t12.5 -30.5zM132 464v-464h-52v464h52zM361 629q0 -18 -12.5 -30.5t-30.5 -12.5t-30.5 12.5t-12.5 30.5t12.5 30.5t30.5 12.5t30.5 -12.5t12.5 -30.5zM344 464v-474
q0 -89 -22 -128q-37 -62 -108 -62q-13 0 -24.5 2t-15.5 4l-5 1v45q20 -7 45 -7q27 0 43.5 11t23.5 34.5t9 44t2 55.5v474h52z" />
    <glyph glyph-name="Jcircumflex" unicode="&#x134;" horiz-adv-x="224" 
d="M139 690v-695q0 -97 -24 -140q-33 -60 -100 -60q-16 0 -30.5 2.5t-20.5 4.5l-7 3v45q18 -8 53 -8q25 0 41 11.5t23 35t9 45.5t2 56v700h54zM127 915l95 -145h-45l-65 105l-65 -105h-45l95 145h30z" />
    <glyph glyph-name="jcircumflex" unicode="&#x135;" horiz-adv-x="212" 
d="M132 464v-474q0 -89 -22 -128q-37 -62 -108 -62q-13 0 -24.5 2t-15.5 4l-5 1v45q20 -7 45 -7q27 0 43.5 11t23.5 34.5t9 44t2 55.5v474h52zM121 690l95 -145h-45l-65 105l-65 -105h-45l95 145h30z" />
    <glyph glyph-name="Kcommaaccent" unicode="&#x136;" horiz-adv-x="545" 
d="M257 420l298 -420h-68l-267 385l-81 -80v-305h-54v690h54v-323l326 323h70zM260 -50h60l-55 -140h-40z" />
    <glyph glyph-name="kcommaaccent" unicode="&#x137;" horiz-adv-x="445" 
d="M230 287l220 -287h-65l-190 255l-63 -58v-197h-52v690h52v-435l223 209h65zM220 -50h60l-55 -140h-40z" />
    <glyph glyph-name="kgreenlandic" unicode="&#x138;" horiz-adv-x="440" 
d="M225 287l220 -287h-65l-190 255l-63 -58v-197h-52v464h52v-209l223 209h65z" />
    <glyph glyph-name="Lacute" unicode="&#x139;" horiz-adv-x="395" 
d="M385 49v-49h-300v690h54v-641h246zM176 916h65l-115 -145h-45z" />
    <glyph glyph-name="lacute" unicode="&#x13a;" horiz-adv-x="212" 
d="M132 690v-690h-52v690h52zM167 909h65l-115 -145h-45z" />
    <glyph glyph-name="Lcommaaccent" unicode="&#x13b;" horiz-adv-x="395" 
d="M385 49v-49h-300v690h54v-641h246zM215 -50h60l-55 -140h-40z" />
    <glyph glyph-name="lcommaaccent" unicode="&#x13c;" horiz-adv-x="212" 
d="M132 690v-690h-52v690h52zM84 -50h60l-55 -140h-40z" />
    <glyph glyph-name="Lcaron" unicode="&#x13d;" horiz-adv-x="395" 
d="M385 49v-49h-300v690h54v-641h246zM315 690h60l-80 -190h-40z" />
    <glyph glyph-name="lcaron" unicode="&#x13e;" horiz-adv-x="278" 
d="M132 690v-690h-52v690h52zM248 690h60l-80 -190h-40z" />
    <glyph glyph-name="Ldot" unicode="&#x13f;" horiz-adv-x="395" 
d="M385 49v-49h-300v690h54v-641h246zM343 349q0 -20 -13.5 -33.5t-34.5 -13.5q-20 0 -33.5 13.5t-13.5 33.5q0 21 13.5 34.5t33.5 13.5q21 0 34.5 -13.5t13.5 -34.5z" />
    <glyph glyph-name="ldot" unicode="&#x140;" horiz-adv-x="350" 
d="M132 690v-690h-52v690h52zM316 287q0 -20 -13.5 -33.5t-34.5 -13.5q-20 0 -33.5 13.5t-13.5 33.5q0 21 13.5 34.5t33.5 13.5q21 0 34.5 -13.5t13.5 -34.5z" />
    <glyph glyph-name="Lslash" unicode="&#x141;" horiz-adv-x="395" 
d="M385 49v-49h-300v280l-70 -55v55l70 55v355h54v-315l121 95v-55l-121 -95v-271h246z" />
    <glyph glyph-name="lslash" unicode="&#x142;" horiz-adv-x="212" 
d="M197 495v-60l-65 -65v-370h-52v320l-65 -65v60l65 65v310h52v-260z" />
    <glyph glyph-name="Nacute" unicode="&#x143;" horiz-adv-x="733" 
d="M648 690v-690h-49l-460 605v-605h-54v690h54l455 -595v595h54zM438 916h65l-115 -145h-45z" />
    <glyph glyph-name="nacute" unicode="&#x144;" horiz-adv-x="511" 
d="M441 277v-277h-53v275q0 32 -4 56t-15 47.5t-34.5 36t-59.5 12.5q-72 0 -110 -55t-38 -142v-230h-52v464h52v-86q17 42 58.5 68t91.5 26q93 0 128.5 -51t35.5 -144zM304 690h65l-115 -145h-45z" />
    <glyph glyph-name="Ncommaaccent" unicode="&#x145;" horiz-adv-x="733" 
d="M648 690v-690h-49l-460 605v-605h-54v690h54l455 -595v595h54zM354 -50h60l-55 -140h-40z" />
    <glyph glyph-name="ncommaaccent" unicode="&#x146;" horiz-adv-x="511" 
d="M441 277v-277h-53v275q0 32 -4 56t-15 47.5t-34.5 36t-59.5 12.5q-72 0 -110 -55t-38 -142v-230h-52v464h52v-86q17 42 58.5 68t91.5 26q93 0 128.5 -51t35.5 -144zM243 -50h60l-55 -140h-40z" />
    <glyph glyph-name="Ncaron" unicode="&#x147;" horiz-adv-x="733" 
d="M648 690v-690h-49l-460 605v-605h-54v690h54l455 -595v595h54zM431 916h45l-95 -145h-30l-95 145h45l65 -105z" />
    <glyph glyph-name="ncaron" unicode="&#x148;" horiz-adv-x="511" 
d="M441 277v-277h-53v275q0 32 -4 56t-15 47.5t-34.5 36t-59.5 12.5q-72 0 -110 -55t-38 -142v-230h-52v464h52v-86q17 42 58.5 68t91.5 26q93 0 128.5 -51t35.5 -144zM320 690h45l-95 -145h-30l-95 145h45l65 -105z" />
    <glyph glyph-name="Eng" unicode="&#x14a;" horiz-adv-x="733" 
d="M648 690v-695q0 -97 -24 -140q-33 -60 -100 -60q-16 0 -30.5 2.5t-21.5 4.5l-6 3v45q18 -8 53 -8q25 0 41 11.5t23 35t9 45.5t2 56v16l-455 599v-605h-54v690h54l455 -595v595h54z" />
    <glyph glyph-name="eng" unicode="&#x14b;" horiz-adv-x="511" 
d="M441 277v-287q0 -87 -23 -128q-37 -62 -108 -62q-13 0 -24.5 2t-15.5 4l-5 1v45q20 -7 45 -7q27 0 43.5 11t23.5 34.5t9 44t2 55.5v285q0 32 -4 56t-15 47.5t-34.5 36t-59.5 12.5q-72 0 -110 -55t-38 -142v-230h-52v464h52v-86q17 42 58.5 68t91.5 26q93 0 128.5 -51
t35.5 -144z" />
    <glyph glyph-name="Omacron" unicode="&#x14c;" horiz-adv-x="785" 
d="M742 344q0 -160 -102 -258t-248 -98t-248 98t-102 258t102 258t248 98t248 -98t102 -258zM686 345q0 140 -85.5 223.5t-208.5 83.5t-208 -83.5t-85 -223.5q0 -139 85.5 -222.5t207.5 -83.5q123 0 208.5 83.5t85.5 222.5zM502 836v-40h-220v40h220z" />
    <glyph glyph-name="omacron" unicode="&#x14d;" horiz-adv-x="555" 
d="M515 230q0 -104 -68.5 -172t-169.5 -68q-100 0 -168.5 68t-68.5 172t68.5 173t168.5 69q101 0 169.5 -69t68.5 -173zM460 232q0 83 -50 139t-133 56q-82 0 -132 -56t-50 -139t50 -139t132 -56q83 0 133 56t50 139zM387 610v-40h-220v40h220z" />
    <glyph glyph-name="Obreve" unicode="&#x14e;" horiz-adv-x="785" 
d="M742 344q0 -160 -102 -258t-248 -98t-248 98t-102 258t102 258t248 98t248 -98t102 -258zM686 345q0 140 -85.5 223.5t-208.5 83.5t-208 -83.5t-85 -223.5q0 -139 85.5 -222.5t207.5 -83.5q123 0 208.5 83.5t85.5 222.5zM492 901h35q-7 -56 -42.5 -85.5t-92.5 -29.5
t-92.5 29.5t-42.5 85.5h35q14 -70 100 -70t100 70z" />
    <glyph glyph-name="obreve" unicode="&#x14f;" horiz-adv-x="555" 
d="M515 230q0 -104 -68.5 -172t-169.5 -68q-100 0 -168.5 68t-68.5 172t68.5 173t168.5 69q101 0 169.5 -69t68.5 -173zM460 232q0 83 -50 139t-133 56q-82 0 -132 -56t-50 -139t50 -139t132 -56q83 0 133 56t50 139zM377 675h35q-7 -56 -42.5 -85.5t-92.5 -29.5t-92.5 29.5
t-42.5 85.5h35q14 -70 100 -70t100 70z" />
    <glyph glyph-name="Ohungarumlaut" unicode="&#x150;" horiz-adv-x="785" 
d="M742 344q0 -160 -102 -258t-248 -98t-248 98t-102 258t102 258t248 98t248 -98t102 -258zM686 345q0 140 -85.5 223.5t-208.5 83.5t-208 -83.5t-85 -223.5q0 -139 85.5 -222.5t207.5 -83.5q123 0 208.5 83.5t85.5 222.5zM502 916h65l-115 -145h-45zM392 916h65l-115 -145
h-45z" />
    <glyph glyph-name="ohungarumlaut" unicode="&#x151;" horiz-adv-x="555" 
d="M515 230q0 -104 -68.5 -172t-169.5 -68q-100 0 -168.5 68t-68.5 172t68.5 173t168.5 69q101 0 169.5 -69t68.5 -173zM460 232q0 83 -50 139t-133 56q-82 0 -132 -56t-50 -139t50 -139t132 -56q83 0 133 56t50 139zM368 690h65l-115 -145h-45zM258 690h65l-115 -145h-45z
" />
    <glyph glyph-name="OE" unicode="&#x152;" horiz-adv-x="995" 
d="M947 49v-49h-352v50q-89 -62 -208 -62q-142 0 -243.5 98t-101.5 258t101.5 258t243.5 98q114 0 208 -60v50h345v-49h-291v-250h273v-49h-273v-293h298zM595 115v460q-86 77 -208 77q-119 0 -203.5 -84t-84.5 -223t84.5 -222.5t203.5 -83.5q124 0 208 76z" />
    <glyph glyph-name="oe" unicode="&#x153;" horiz-adv-x="925" 
d="M890 255l-3 -35h-377q4 -84 49 -133.5t123 -49.5q47 0 87.5 15t58.5 30l17 15l25 -37q-2 -3 -7 -7.5t-22 -16.5t-37.5 -21.5t-54.5 -17t-72 -7.5q-45 0 -82.5 14t-59.5 36t-33.5 39t-18.5 33q-29 -56 -82 -89t-124 -33q-100 0 -168.5 68t-68.5 172t68.5 173t168.5 69
q71 0 125.5 -34t81.5 -91q27 57 78 91t118 34q91 0 150.5 -61.5t59.5 -155.5zM512 265h325q0 24 -9 51t-27.5 52.5t-50.5 42t-73 16.5q-78 0 -120 -51.5t-45 -110.5zM460 232q0 83 -50 139t-133 56q-82 0 -132 -56t-50 -139t50 -139t132 -56q83 0 133 56t50 139z" />
    <glyph glyph-name="Racute" unicode="&#x154;" horiz-adv-x="500" 
d="M290 322l210 -322h-69l-204 320h-88v-320h-54v690h160q98 0 156.5 -49.5t58.5 -135.5q0 -80 -48.5 -126t-121.5 -57zM403 505q0 71 -51 107q-25 19 -55.5 24t-81.5 5h-76v-272h76q34 0 53 1t43 7.5t41 19.5q51 38 51 108zM290 916h65l-115 -145h-45z" />
    <glyph glyph-name="racute" unicode="&#x155;" horiz-adv-x="300" 
d="M295 465l-5 -51q-22 8 -50 8q-49 0 -80 -42q-33 -45 -33 -130v-250h-52v464h52v-87q12 45 45 70t73 25q13 0 25.5 -2t18.5 -4zM225 690h65l-115 -145h-45z" />
    <glyph glyph-name="Rcommaaccent" unicode="&#x156;" horiz-adv-x="500" 
d="M290 322l210 -322h-69l-204 320h-88v-320h-54v690h160q98 0 156.5 -49.5t58.5 -135.5q0 -80 -48.5 -126t-121.5 -57zM403 505q0 71 -51 107q-25 19 -55.5 24t-81.5 5h-76v-272h76q34 0 53 1t43 7.5t41 19.5q51 38 51 108zM255 -50h60l-55 -140h-40z" />
    <glyph glyph-name="rcommaaccent" unicode="&#x157;" horiz-adv-x="300" 
d="M295 465l-5 -51q-22 8 -50 8q-49 0 -80 -42q-33 -45 -33 -130v-250h-52v464h52v-87q12 45 45 70t73 25q13 0 25.5 -2t18.5 -4zM92 -50h60l-55 -140h-40z" />
    <glyph glyph-name="Rcaron" unicode="&#x158;" horiz-adv-x="500" 
d="M290 322l210 -322h-69l-204 320h-88v-320h-54v690h160q98 0 156.5 -49.5t58.5 -135.5q0 -80 -48.5 -126t-121.5 -57zM403 505q0 71 -51 107q-25 19 -55.5 24t-81.5 5h-76v-272h76q34 0 53 1t43 7.5t41 19.5q51 38 51 108zM292 916h45l-95 -145h-30l-95 145h45l65 -105z
" />
    <glyph glyph-name="rcaron" unicode="&#x159;" horiz-adv-x="300" 
d="M295 465l-5 -51q-22 8 -50 8q-49 0 -80 -42q-33 -45 -33 -130v-250h-52v464h52v-87q12 45 45 70t73 25q13 0 25.5 -2t18.5 -4zM237 690h45l-95 -145h-30l-95 145h45l65 -105z" />
    <glyph glyph-name="Sacute" unicode="&#x15a;" horiz-adv-x="522" 
d="M477 180q0 -81 -61.5 -136.5t-159.5 -55.5q-47 0 -86.5 14.5t-64.5 37.5t-38.5 40t-21.5 32l42 30q23 -42 68 -74.5t106 -32.5q69 0 115 39.5t46 105.5q0 31 -13.5 56.5t-39.5 42.5t-40 24t-39 17q-78 31 -113 50q-100 56 -100 160q0 74 57.5 122t145.5 48q40 0 75 -12
t57 -30t33 -29.5t15 -18.5l-38 -33q-59 75 -146 75q-63 0 -103.5 -31.5t-40.5 -88.5q0 -52 28 -81t75 -49q133 -57 142 -62q100 -56 100 -160zM315 916h65l-115 -145h-45z" />
    <glyph glyph-name="sacute" unicode="&#x15b;" horiz-adv-x="390" 
d="M357 127q0 -63 -47.5 -100t-115.5 -37q-115 0 -169 90l37 30q50 -73 134 -73q47 0 78 22.5t31 65.5q0 12 -4 23t-14 20t-17.5 15t-23 13t-22 9.5t-24 8.5t-18.5 6q-23 8 -38 15t-39 22t-37 38.5t-13 52.5q0 59 42.5 91.5t98.5 32.5q89 0 146 -65l-32 -32q-48 53 -116 53
q-40 0 -64.5 -19.5t-24.5 -54.5q0 -23 16.5 -40.5t36 -27t54.5 -21.5q31 -11 48.5 -18.5t44 -24t39.5 -40.5t13 -55zM229 690h65l-115 -145h-45z" />
    <glyph glyph-name="Scircumflex" unicode="&#x15c;" horiz-adv-x="522" 
d="M477 180q0 -81 -61.5 -136.5t-159.5 -55.5q-47 0 -86.5 14.5t-64.5 37.5t-38.5 40t-21.5 32l42 30q23 -42 68 -74.5t106 -32.5q69 0 115 39.5t46 105.5q0 31 -13.5 56.5t-39.5 42.5t-40 24t-39 17q-78 31 -113 50q-100 56 -100 160q0 74 57.5 122t145.5 48q40 0 75 -12
t57 -30t33 -29.5t15 -18.5l-38 -33q-59 75 -146 75q-63 0 -103.5 -31.5t-40.5 -88.5q0 -52 28 -81t75 -49q133 -57 142 -62q100 -56 100 -160zM286 916l95 -145h-45l-65 105l-65 -105h-45l95 145h30z" />
    <glyph glyph-name="scircumflex" unicode="&#x15d;" horiz-adv-x="390" 
d="M357 127q0 -63 -47.5 -100t-115.5 -37q-115 0 -169 90l37 30q50 -73 134 -73q47 0 78 22.5t31 65.5q0 12 -4 23t-14 20t-17.5 15t-23 13t-22 9.5t-24 8.5t-18.5 6q-23 8 -38 15t-39 22t-37 38.5t-13 52.5q0 59 42.5 91.5t98.5 32.5q89 0 146 -65l-32 -32q-48 53 -116 53
q-40 0 -64.5 -19.5t-24.5 -54.5q0 -23 16.5 -40.5t36 -27t54.5 -21.5q31 -11 48.5 -18.5t44 -24t39.5 -40.5t13 -55zM209 690l95 -145h-45l-65 105l-65 -105h-45l95 145h30z" />
    <glyph glyph-name="Scedilla" unicode="&#x15e;" horiz-adv-x="522" 
d="M477 180q0 -68 -45 -119.5t-120 -66.5l-81 -139h-65l96 133h-6q-47 0 -86.5 14.5t-64.5 37.5t-38.5 40t-21.5 32l42 30q23 -42 68 -74.5t106 -32.5q69 0 115 39.5t46 105.5q0 31 -13.5 56.5t-39.5 42.5t-40 24t-39 17q-78 31 -113 50q-100 56 -100 160q0 74 57.5 122
t145.5 48q40 0 75 -12t57 -30t33 -29.5t15 -18.5l-38 -33q-59 75 -146 75q-63 0 -103.5 -31.5t-40.5 -88.5q0 -52 28 -81t75 -49q133 -57 142 -62q100 -56 100 -160z" />
    <glyph glyph-name="scedilla" unicode="&#x15f;" horiz-adv-x="390" 
d="M357 127q0 -51 -32 -85.5t-83 -45.5l-82 -141h-65l98 135q-114 1 -168 90l37 30q50 -73 134 -73q47 0 78 22.5t31 65.5q0 12 -4 23t-14 20t-17.5 15t-23 13t-22 9.5t-24 8.5t-18.5 6q-23 8 -38 15t-39 22t-37 38.5t-13 52.5q0 59 42.5 91.5t98.5 32.5q89 0 146 -65
l-32 -32q-48 53 -116 53q-40 0 -64.5 -19.5t-24.5 -54.5q0 -23 16.5 -40.5t36 -27t54.5 -21.5q31 -11 48.5 -18.5t44 -24t39.5 -40.5t13 -55z" />
    <glyph glyph-name="Scaron" unicode="&#x160;" horiz-adv-x="522" 
d="M342 895h45l-95 -145h-30l-95 145h45l65 -105zM477 180q0 -81 -61.5 -136.5t-159.5 -55.5q-47 0 -86.5 14.5t-64.5 37.5t-38.5 40t-21.5 32l42 30q23 -42 68 -74.5t106 -32.5q69 0 115 39.5t46 105.5q0 31 -13.5 56.5t-39.5 42.5t-40 24t-39 17q-78 31 -113 50
q-100 56 -100 160q0 74 57.5 122t145.5 48q40 0 75 -12t57 -30t33 -29.5t15 -18.5l-38 -33q-59 75 -146 75q-63 0 -103.5 -31.5t-40.5 -88.5q0 -52 28 -81t75 -49q133 -57 142 -62q100 -56 100 -160z" />
    <glyph glyph-name="scaron" unicode="&#x161;" horiz-adv-x="390" 
d="M260 690h45l-95 -145h-30l-95 145h45l65 -105zM357 127q0 -63 -47.5 -100t-115.5 -37q-115 0 -169 90l37 30q50 -73 134 -73q47 0 78 22.5t31 65.5q0 12 -4 23t-14 20t-17.5 15t-23 13t-22 9.5t-24 8.5t-18.5 6q-23 8 -38 15t-39 22t-37 38.5t-13 52.5q0 59 42.5 91.5
t98.5 32.5q89 0 146 -65l-32 -32q-48 53 -116 53q-40 0 -64.5 -19.5t-24.5 -54.5q0 -23 16.5 -40.5t36 -27t54.5 -21.5q31 -11 48.5 -18.5t44 -24t39.5 -40.5t13 -55z" />
    <glyph glyph-name="Tcommaaccent" unicode="&#x162;" horiz-adv-x="484" 
d="M474 690v-49h-205v-641h-54v641h-205v49h464zM229 -50h60l-55 -140h-40z" />
    <glyph glyph-name="tcommaaccent" unicode="&#x163;" horiz-adv-x="280" 
d="M260 50l5 -45q-25 -15 -70 -15q-61 0 -88 50q-11 22 -14 50t-3 90v235h-70v47h70v148h53v-148h117v-47h-118v-266q0 -23 2 -39.5t8.5 -35t21 -28t36.5 -9.5q13 0 25.5 3.5t18.5 6.5zM159 -50h60l-55 -140h-40z" />
    <glyph glyph-name="Tcaron" unicode="&#x164;" horiz-adv-x="484" 
d="M474 690v-49h-205v-641h-54v641h-205v49h464zM307 916h45l-95 -145h-30l-95 145h45l65 -105z" />
    <glyph glyph-name="tcaron" unicode="&#x165;" horiz-adv-x="331" 
d="M260 50l5 -45q-25 -15 -70 -15q-61 0 -88 50q-11 22 -14 50t-3 90v235h-70v47h70v148h53v-148h117v-47h-118v-266q0 -23 2 -39.5t8.5 -35t21 -28t36.5 -9.5q13 0 25.5 3.5t18.5 6.5zM285 690h60l-80 -190h-40z" />
    <glyph glyph-name="Tbar" unicode="&#x166;" horiz-adv-x="484" 
d="M382 464v-40h-113v-424h-54v424h-113v40h113v177h-205v49h464v-49h-205v-177h113z" />
    <glyph glyph-name="tbar" unicode="&#x167;" horiz-adv-x="280" 
d="M250 320v-40h-108v-131q0 -23 2 -39.5t8.5 -35t21 -28t36.5 -9.5q13 0 25.5 3.5t18.5 6.5l6 3l5 -45q-25 -15 -70 -15q-61 0 -88 50q-11 22 -14 50t-3 90v100h-60v40h60v95h-70v47h70v148h53v-148h117v-47h-118v-95h108z" />
    <glyph glyph-name="Utilde" unicode="&#x168;" horiz-adv-x="650" 
d="M570 690v-412q0 -72 -9 -119t-40 -86q-68 -85 -196 -85t-196 85q-31 39 -40 86t-9 119v412h54v-417q0 -114 35 -162q54 -73 156 -73t156 73q35 48 35 162v417h54zM432 888l33 -10q-4 -36 -27 -56.5t-51 -20.5q-12 0 -24 3t-18.5 6t-15 8t-9.5 5l-12 8q-13 8 -25 12.5
t-23 4.5q-18 0 -29.5 -12.5t-13.5 -29.5l-32 10q4 36 26.5 56.5t50.5 20.5q10 0 19.5 -1.5t17 -4.5t13 -6l11.5 -6t7 -4l12 -8q13 -8 25 -12.5t23 -4.5q18 0 29 13t13 29z" />
    <glyph glyph-name="utilde" unicode="&#x169;" horiz-adv-x="507" 
d="M432 464v-464h-52v75q-46 -85 -150 -85q-85 0 -125 52q-35 45 -35 146v276h52v-284q0 -30 4 -52.5t15 -45.5t35.5 -35t60.5 -12q72 0 107.5 52.5t35.5 127.5v249h52zM360 662l33 -10q-4 -36 -27 -56.5t-51 -20.5q-12 0 -24 3t-18.5 6t-15 8t-9.5 5l-12 8q-13 8 -25 12.5
t-23 4.5q-18 0 -29.5 -12.5t-13.5 -29.5l-32 10q4 36 26.5 56.5t50.5 20.5q10 0 19.5 -1.5t17 -4.5t13 -6l11.5 -6t7 -4l12 -8q13 -8 25 -12.5t23 -4.5q18 0 29 13t13 29z" />
    <glyph glyph-name="Umacron" unicode="&#x16a;" horiz-adv-x="650" 
d="M570 690v-412q0 -72 -9 -119t-40 -86q-68 -85 -196 -85t-196 85q-31 39 -40 86t-9 119v412h54v-417q0 -114 35 -162q54 -73 156 -73t156 73q35 48 35 162v417h54zM435 836v-40h-220v40h220z" />
    <glyph glyph-name="umacron" unicode="&#x16b;" horiz-adv-x="507" 
d="M432 464v-464h-52v75q-46 -85 -150 -85q-85 0 -125 52q-35 45 -35 146v276h52v-284q0 -30 4 -52.5t15 -45.5t35.5 -35t60.5 -12q72 0 107.5 52.5t35.5 127.5v249h52zM363 610v-40h-220v40h220z" />
    <glyph glyph-name="Ubreve" unicode="&#x16c;" horiz-adv-x="650" 
d="M570 690v-412q0 -72 -9 -119t-40 -86q-68 -85 -196 -85t-196 85q-31 39 -40 86t-9 119v412h54v-417q0 -114 35 -162q54 -73 156 -73t156 73q35 48 35 162v417h54zM425 901h35q-7 -56 -42.5 -85.5t-92.5 -29.5t-92.5 29.5t-42.5 85.5h35q14 -70 100 -70t100 70z" />
    <glyph glyph-name="ubreve" unicode="&#x16d;" horiz-adv-x="507" 
d="M432 464v-464h-52v75q-46 -85 -150 -85q-85 0 -125 52q-35 45 -35 146v276h52v-284q0 -30 4 -52.5t15 -45.5t35.5 -35t60.5 -12q72 0 107.5 52.5t35.5 127.5v249h52zM353 675h35q-7 -56 -42.5 -85.5t-92.5 -29.5t-92.5 29.5t-42.5 85.5h35q14 -70 100 -70t100 70z" />
    <glyph glyph-name="Uring" unicode="&#x16e;" horiz-adv-x="650" 
d="M570 690v-412q0 -72 -9 -119t-40 -86q-68 -85 -196 -85t-196 85q-31 39 -40 86t-9 119v412h54v-417q0 -114 35 -162q54 -73 156 -73t156 73q35 48 35 162v417h54zM415 858q0 -38 -26.5 -64t-63.5 -26t-63.5 26t-26.5 64t26.5 64t63.5 26t63.5 -26t26.5 -64zM377 858
q0 23 -15 39t-37 16t-37.5 -16t-15.5 -39t15.5 -39t37.5 -16t37 16t15 39z" />
    <glyph glyph-name="uring" unicode="&#x16f;" horiz-adv-x="507" 
d="M432 464v-464h-52v75q-46 -85 -150 -85q-85 0 -125 52q-35 45 -35 146v276h52v-284q0 -30 4 -52.5t15 -45.5t35.5 -35t60.5 -12q72 0 107.5 52.5t35.5 127.5v249h52zM343 632q0 -38 -26.5 -64t-63.5 -26t-63.5 26t-26.5 64t26.5 64t63.5 26t63.5 -26t26.5 -64zM305 632
q0 23 -15 39t-37 16t-37.5 -16t-15.5 -39t15.5 -39t37.5 -16t37 16t15 39z" />
    <glyph glyph-name="Uhungarumlaut" unicode="&#x170;" horiz-adv-x="650" 
d="M570 690v-412q0 -72 -9 -119t-40 -86q-68 -85 -196 -85t-196 85q-31 39 -40 86t-9 119v412h54v-417q0 -114 35 -162q54 -73 156 -73t156 73q35 48 35 162v417h54zM424 916h65l-115 -145h-45zM314 916h65l-115 -145h-45z" />
    <glyph glyph-name="uhungarumlaut" unicode="&#x171;" horiz-adv-x="507" 
d="M432 464v-464h-52v75q-46 -85 -150 -85q-85 0 -125 52q-35 45 -35 146v276h52v-284q0 -30 4 -52.5t15 -45.5t35.5 -35t60.5 -12q72 0 107.5 52.5t35.5 127.5v249h52zM353 690h65l-115 -145h-45zM243 690h65l-115 -145h-45z" />
    <glyph glyph-name="Uogonek" unicode="&#x172;" horiz-adv-x="650" 
d="M435 -145l13 -25q-40 -40 -95 -40q-42 0 -68.5 24.5t-26.5 65.5q0 55 63 108q-125 2 -192 85q-31 39 -40 86t-9 119v412h54v-417q0 -114 35 -162q54 -73 156 -73t156 73q35 48 35 162v417h54v-412q0 -72 -9 -119t-40 -86q-55 -68 -150 -82q-28 -20 -47 -49.5t-19 -54.5
q0 -26 17 -40.5t43 -14.5q38 0 70 23z" />
    <glyph glyph-name="uogonek" unicode="&#x173;" horiz-adv-x="507" 
d="M478 -145l13 -25q-40 -40 -95 -40q-42 0 -68.5 24.5t-26.5 65.5q0 64 79 120v75q-46 -85 -150 -85q-85 0 -125 52q-35 45 -35 146v276h52v-284q0 -30 4 -52.5t15 -45.5t35.5 -35t60.5 -12q72 0 107.5 52.5t35.5 127.5v249h52v-464q-35 -19 -59.5 -52t-24.5 -61
q0 -26 17 -40.5t43 -14.5q38 0 70 23z" />
    <glyph glyph-name="Wcircumflex" unicode="&#x174;" horiz-adv-x="907" 
d="M840 690h57l-202 -691h-50l-192 613l-191 -613h-50l-202 691h57l173 -598l185 598h57l185 -598zM468 916l95 -145h-45l-65 105l-65 -105h-45l95 145h30z" />
    <glyph glyph-name="wcircumflex" unicode="&#x175;" horiz-adv-x="720" 
d="M650 464h55l-155 -464h-45l-145 390l-145 -390h-45l-155 464h55l125 -389l145 390h40l145 -390zM375 690l95 -145h-45l-65 105l-65 -105h-45l95 145h30z" />
    <glyph glyph-name="Ycircumflex" unicode="&#x176;" horiz-adv-x="545" 
d="M477 690h63l-241 -395v-295h-54v295l-240 395h62l205 -345zM287 916l95 -145h-45l-65 105l-65 -105h-45l95 145h30z" />
    <glyph glyph-name="ycircumflex" unicode="&#x177;" horiz-adv-x="435" 
d="M380 464h55l-235 -572q-36 -87 -104 -87q-14 0 -28 3t-21 6l-7 3l10 50q18 -10 46 -10q23 0 38.5 14.5t30.5 58.5l27 77l-187 457h55l160 -404zM232 690l95 -145h-45l-65 105l-65 -105h-45l95 145h30z" />
    <glyph glyph-name="Ydieresis" unicode="&#x178;" horiz-adv-x="545" 
d="M382 827q0 -20 -12.5 -32.5t-29.5 -12.5q-18 0 -30.5 12.5t-12.5 32.5t12.5 32.5t30.5 12.5q17 0 29.5 -12.5t12.5 -32.5zM247 827q0 -20 -12.5 -32.5t-29.5 -12.5q-18 0 -30.5 12.5t-12.5 32.5t12.5 32.5t30.5 12.5q17 0 29.5 -12.5t12.5 -32.5zM477 690h63l-241 -395
v-295h-54v295l-240 395h62l205 -345z" />
    <glyph glyph-name="Zacute" unicode="&#x179;" horiz-adv-x="535" 
d="M510 49v-49h-480v45l402 596h-391v49h464v-36l-410 -605h415zM302 915h65l-115 -145h-45z" />
    <glyph glyph-name="zacute" unicode="&#x17a;" horiz-adv-x="430" 
d="M405 47v-47h-380v37l297 378h-282v47h350v-37l-298 -378h313zM250 690h65l-115 -145h-45z" />
    <glyph glyph-name="Zdotaccent" unicode="&#x17b;" horiz-adv-x="535" 
d="M510 49v-49h-480v45l402 596h-391v49h464v-36l-410 -605h415zM311 843q0 -19 -12.5 -31.5t-31.5 -12.5t-31.5 12.5t-12.5 31.5t12.5 31.5t31.5 12.5t31.5 -12.5t12.5 -31.5z" />
    <glyph glyph-name="zdotaccent" unicode="&#x17c;" horiz-adv-x="430" 
d="M405 47v-47h-380v37l297 378h-282v47h350v-37l-298 -378h313zM259 618q0 -19 -12.5 -31.5t-31.5 -12.5t-31.5 12.5t-12.5 31.5t12.5 31.5t31.5 12.5t31.5 -12.5t12.5 -31.5z" />
    <glyph glyph-name="Zcaron" unicode="&#x17d;" horiz-adv-x="535" 
d="M338 895h45l-95 -145h-30l-95 145h45l65 -105zM510 49v-49h-480v45l402 596h-391v49h464v-36l-410 -605h415z" />
    <glyph glyph-name="zcaron" unicode="&#x17e;" horiz-adv-x="430" 
d="M280 690h45l-95 -145h-30l-95 145h45l65 -105zM405 47v-47h-380v37l297 378h-282v47h350v-37l-298 -378h313z" />
    <glyph glyph-name="florin" unicode="&#x192;" 
d="M510 682l-20 -42q-25 17 -60 17q-17 0 -30.5 -7t-21 -15.5t-13.5 -26.5t-8.5 -28.5t-6.5 -32.5l-28 -145h115l-7 -46h-116l-62 -326q-5 -30 -12.5 -52.5t-22 -46t-39 -36.5t-58.5 -13q-20 0 -39.5 6t-28.5 12l-10 5l20 42q28 -15 58 -15q33 0 55 25q17 21 30 93l56 306
h-91l7 46h93l35 178q11 55 40 87q33 38 85 38q24 0 47.5 -8t32.5 -15z" />
    <glyph glyph-name="AEacute" unicode="&#x1fc;" horiz-adv-x="837" 
d="M790 49v-49h-355v210h-270l-130 -210h-60l435 690h373v-49h-294v-245h276v-49h-276v-298h301zM196 260h239v382h-3zM648 915h65l-115 -145h-45z" />
    <glyph glyph-name="aeacute" unicode="&#x1fd;" horiz-adv-x="810" 
d="M775 255l-3 -35h-377q4 -84 49 -133.5t123 -49.5q47 0 87.5 15t57.5 30l18 15l25 -37q-2 -3 -7 -7.5t-22 -16.5t-37.5 -21.5t-54.5 -17t-72 -7.5q-22 0 -42 3t-35.5 9t-29.5 13t-25 16t-19 16.5t-15 16.5t-10.5 14l-7.5 11l-3 6q-79 -105 -190 -105q-67 0 -111 40
t-44 100q0 62 47 99t138 41l127 5v25q0 61 -36.5 94t-93.5 33q-46 0 -84.5 -14.5t-52.5 -25.5l-20 38q70 47 155 47q91 0 140 -52q12 -13 19.5 -25.5t8.5 -18.5l2 -6q30 48 79 75t106 27q91 0 150.5 -61.5t59.5 -155.5zM397 265h325q0 24 -9 51t-27.5 52.5t-50.5 42
t-73 16.5q-78 0 -120 -51.5t-45 -110.5zM356 135q-14 42 -14 100l-132 -8q-128 -7 -128 -97q0 -40 29.5 -67.5t83.5 -27.5q53 0 98.5 31.5t62.5 68.5zM456 690h65l-115 -145h-45z" />
    <glyph glyph-name="Oslashacute" unicode="&#x1fe;" horiz-adv-x="785" 
d="M465 895h65l-115 -145h-45zM742 344q0 -160 -102 -258t-248 -98q-136 0 -233 85l-82 -83l-32 32l81 83q-84 97 -84 239q0 160 102 258t248 98q138 0 234 -85l84 85l32 -33l-83 -85q83 -96 83 -238zM165 145l426 433q-82 74 -199 74q-123 0 -208 -83.5t-85 -223.5
q0 -120 66 -200zM686 345q0 118 -64 200l-425 -434q80 -72 195 -72q123 0 208.5 83.5t85.5 222.5z" />
    <glyph glyph-name="oslashacute" unicode="&#x1ff;" horiz-adv-x="555" 
d="M327 690h65l-115 -145h-45zM495 480l30 -30l-63 -64q53 -66 53 -156q0 -104 -68.5 -172t-169.5 -68q-89 0 -155 55l-62 -63l-30 30l63 64q-53 64 -53 154q0 104 68.5 173t168.5 69q91 0 155 -55zM130 113l268 270q-49 44 -121 44q-82 0 -132 -56t-50 -139q0 -69 35 -119z
M460 232q0 68 -34 119l-268 -270q49 -44 119 -44q83 0 133 56t50 139z" />
    <glyph glyph-name="dotlessj" unicode="&#x237;" horiz-adv-x="212" 
d="M132 464v-474q0 -89 -22 -128q-37 -62 -108 -62q-13 0 -24.5 2t-15.5 4l-5 1v45q20 -7 45 -7q27 0 43.5 11t23.5 34.5t9 44t2 55.5v474h52z" />
    <glyph glyph-name="circumflex" unicode="&#x2c6;" horiz-adv-x="280" 
d="M155 690l95 -145h-45l-65 105l-65 -105h-45l95 145h30z" />
    <glyph glyph-name="caron" unicode="&#x2c7;" horiz-adv-x="280" 
d="M205 690h45l-95 -145h-30l-95 145h45l65 -105z" />
    <glyph glyph-name="breve" unicode="&#x2d8;" horiz-adv-x="280" 
d="M240 675h35q-7 -56 -42.5 -85.5t-92.5 -29.5t-92.5 29.5t-42.5 85.5h35q14 -70 100 -70t100 70z" />
    <glyph glyph-name="dotaccent" unicode="&#x2d9;" horiz-adv-x="280" 
d="M184 618q0 -19 -12.5 -31.5t-31.5 -12.5t-31.5 12.5t-12.5 31.5t12.5 31.5t31.5 12.5t31.5 -12.5t12.5 -31.5z" />
    <glyph glyph-name="ring" unicode="&#x2da;" horiz-adv-x="280" 
d="M230 632q0 -38 -26 -64t-64 -26t-64 26t-26 64t26 64t64 26t64 -26t26 -64zM192 632q0 23 -15 39t-37 16t-37.5 -16t-15.5 -39t15.5 -39t37.5 -16t37 16t15 39z" />
    <glyph glyph-name="ogonek" unicode="&#x2db;" horiz-adv-x="280" 
d="M222 -145l13 -25q-40 -40 -95 -40q-42 0 -68.5 24.5t-26.5 65.5q0 64 85 125h42v-5q-32 -19 -56 -52t-24 -61q0 -26 17 -40.5t43 -14.5q38 0 70 23z" />
    <glyph glyph-name="tilde" unicode="&#x2dc;" horiz-adv-x="280" 
d="M247 662l33 -10q-4 -36 -27 -56.5t-51 -20.5q-12 0 -24 3t-18.5 6t-15 8t-9.5 5l-13 8q-12 8 -24 12.5t-23 4.5q-18 0 -29.5 -12.5t-13.5 -29.5l-32 10q4 36 26.5 56.5t50.5 20.5q10 0 19.5 -1.5t17 -4.5t13 -6l11.5 -6t7 -4l13 -8q12 -8 24 -12.5t23 -4.5q18 0 29 13
t13 29z" />
    <glyph glyph-name="hungarumlaut" unicode="&#x2dd;" horiz-adv-x="280" 
d="M210 690h65l-115 -145h-45zM100 690h65l-115 -145h-45z" />
    <glyph glyph-name="Wgrave" unicode="&#x1e80;" horiz-adv-x="907" 
d="M840 690h57l-202 -691h-50l-192 613l-191 -613h-50l-202 691h57l173 -598l185 598h57l185 -598zM413 916l95 -145h-45l-115 145h65z" />
    <glyph glyph-name="wgrave" unicode="&#x1e81;" horiz-adv-x="720" 
d="M650 464h55l-155 -464h-45l-145 390l-145 -390h-45l-155 464h55l125 -389l145 390h40l145 -390zM324 690l95 -145h-45l-115 145h65z" />
    <glyph glyph-name="Wacute" unicode="&#x1e82;" horiz-adv-x="907" 
d="M840 690h57l-202 -691h-50l-192 613l-191 -613h-50l-202 691h57l173 -598l185 598h57l185 -598zM474 916h65l-115 -145h-45z" />
    <glyph glyph-name="wacute" unicode="&#x1e83;" horiz-adv-x="720" 
d="M650 464h55l-155 -464h-45l-145 390l-145 -390h-45l-155 464h55l125 -389l145 390h40l145 -390zM390 690h65l-115 -145h-45z" />
    <glyph glyph-name="Wdieresis" unicode="&#x1e84;" horiz-adv-x="907" 
d="M840 690h57l-202 -691h-50l-192 613l-191 -613h-50l-202 691h57l173 -598l185 598h57l185 -598zM563 843q0 -20 -12.5 -32.5t-30.5 -12.5q-17 0 -29.5 12.5t-12.5 32.5t12.5 32.5t29.5 12.5q18 0 30.5 -12.5t12.5 -32.5zM428 843q0 -20 -12.5 -32.5t-30.5 -12.5
q-17 0 -29.5 12.5t-12.5 32.5t12.5 32.5t29.5 12.5q18 0 30.5 -12.5t12.5 -32.5z" />
    <glyph glyph-name="wdieresis" unicode="&#x1e85;" horiz-adv-x="720" 
d="M650 464h55l-155 -464h-45l-145 390l-145 -390h-45l-155 464h55l125 -389l145 390h40l145 -390zM470 617q0 -20 -12.5 -32.5t-30.5 -12.5q-17 0 -29.5 12.5t-12.5 32.5t12.5 32.5t29.5 12.5q18 0 30.5 -12.5t12.5 -32.5zM335 617q0 -20 -12.5 -32.5t-30.5 -12.5
q-17 0 -29.5 12.5t-12.5 32.5t12.5 32.5t29.5 12.5q18 0 30.5 -12.5t12.5 -32.5z" />
    <glyph glyph-name="Ygrave" unicode="&#x1ef2;" horiz-adv-x="545" 
d="M477 690h63l-241 -395v-295h-54v295l-240 395h62l205 -345zM229 916l95 -145h-45l-115 145h65z" />
    <glyph glyph-name="ygrave" unicode="&#x1ef3;" horiz-adv-x="435" 
d="M380 464h55l-235 -572q-36 -87 -104 -87q-14 0 -28 3t-21 6l-7 3l10 50q18 -10 46 -10q23 0 38.5 14.5t30.5 58.5l27 77l-187 457h55l160 -404zM162 690l95 -145h-45l-115 145h65z" />
    <glyph glyph-name="endash" unicode="&#x2013;" horiz-adv-x="450" 
d="M450 300v-45h-450v45h450z" />
    <glyph glyph-name="emdash" unicode="&#x2014;" horiz-adv-x="800" 
d="M800 300v-45h-800v45h800z" />
    <glyph glyph-name="quoteleft" unicode="&#x2018;" horiz-adv-x="285" 
d="M165 690h40l-60 -190h-60z" />
    <glyph glyph-name="quoteright" unicode="&#x2019;" horiz-adv-x="285" 
d="M140 690h60l-80 -190h-40z" />
    <glyph glyph-name="quotesinglbase" unicode="&#x201a;" horiz-adv-x="285" 
d="M140 75h60l-80 -190h-40z" />
    <glyph glyph-name="quotedblleft" unicode="&#x201c;" horiz-adv-x="435" 
d="M315 690h40l-60 -190h-60zM165 690h40l-60 -190h-60z" />
    <glyph glyph-name="quotedblright" unicode="&#x201d;" horiz-adv-x="435" 
d="M290 690h60l-80 -190h-40zM140 690h60l-80 -190h-40z" />
    <glyph glyph-name="quotedblbase" unicode="&#x201e;" horiz-adv-x="435" 
d="M290 75h60l-80 -190h-40zM140 75h60l-80 -190h-40z" />
    <glyph glyph-name="dagger" unicode="&#x2020;" 
d="M495 462v-47h-190v-605h-50v605h-190v47h190v263h50v-263h190z" />
    <glyph glyph-name="daggerdbl" unicode="&#x2021;" 
d="M495 120v-48h-190v-262h-50v262h-190v48h190v295h-190v47h190v263h50v-263h190v-47h-190v-295h190z" />
    <glyph glyph-name="bullet" unicode="&#x2022;" horiz-adv-x="500" 
d="M390 365q0 -56 -42 -98t-98 -42t-98 42t-42 98t42 98t98 42t98 -42t42 -98z" />
    <glyph glyph-name="ellipsis" unicode="&#x2026;" horiz-adv-x="925" 
d="M805 38q0 -19 -13 -32t-32 -13t-31.5 13t-12.5 32t12.5 31.5t31.5 12.5t32 -12.5t13 -31.5zM507 38q0 -19 -13 -32t-32 -13t-31.5 13t-12.5 32t12.5 31.5t31.5 12.5t32 -12.5t13 -31.5zM209 38q0 -19 -13 -32t-32 -13t-31.5 13t-12.5 32t12.5 31.5t31.5 12.5t32 -12.5
t13 -31.5z" />
    <glyph glyph-name="perthousand" unicode="&#x2030;" horiz-adv-x="1070" 
d="M1025 147q0 -69 -43.5 -113t-109.5 -44t-109 44t-43 113t43 113.5t109 44.5t109.5 -44.5t43.5 -113.5zM350 535q0 -69 -43.5 -113.5t-109.5 -44.5t-109 44.5t-43 113.5t43 113t109 44t109.5 -44t43.5 -113zM555 705l37 -23l-425 -705l-37 23zM677 147q0 -69 -43 -113
t-109 -44t-109.5 44t-43.5 113t43.5 113.5t109.5 44.5t109 -44.5t43 -113.5zM977 147q0 51 -29 83t-76 32t-76 -32t-29 -83q0 -50 29.5 -82.5t75.5 -32.5q47 0 76 32t29 83zM302 535q0 51 -29 83t-76 32q-46 0 -75.5 -32.5t-29.5 -82.5q0 -51 29 -83t76 -32t76 32t29 83z
M630 147q0 51 -29 83t-76 32t-76 -32t-29 -83t29 -83t76 -32q46 0 75.5 32.5t29.5 82.5z" />
    <glyph glyph-name="guilsinglleft" unicode="&#x2039;" horiz-adv-x="285" 
d="M108 232l120 -159l-37 -27l-141 186l141 186l36 -28z" />
    <glyph glyph-name="guilsinglright" unicode="&#x203a;" horiz-adv-x="285" 
d="M93 418l142 -186l-142 -186l-35 28l118 158l-119 159z" />
    <glyph glyph-name="fraction" unicode="&#x2044;" horiz-adv-x="148" 
d="M280 757l39 -23l-452 -760l-38 23z" />
    <glyph glyph-name="Euro" unicode="&#x20ac;" 
d="M485 120l35 -30q-5 -9 -14 -21t-30.5 -33t-58.5 -34.5t-82 -13.5q-97 0 -161.5 74.5t-78.5 200.5h-70v47h66q-1 24 -1 39l1 39h-66v47h70q15 115 79.5 190t159.5 75q125 0 181 -90l-35 -35q-56 77 -148 77q-63 0 -113.5 -54t-66.5 -163h288v-47h-292q-1 -24 -1 -39l1 -39
h292v-47h-288q13 -106 62 -164.5t121 -58.5q97 0 150 80z" />
    <glyph glyph-name="trademark" unicode="&#x2122;" horiz-adv-x="825" 
d="M737 690l33 -390h-50l-25 325h-3l-112 -325h-38l-112 325h-3l-25 -325h-50l33 390h70l105 -310h2l105 310h70zM330 690v-45h-115v-345h-50v345h-115v45h280z" />
    <glyph glyph-name="product" unicode="&#x220f;" horiz-adv-x="809" 
d="M759 462v-45h-84q7 -39 7 -72q0 -35 -6 -67h83v-45h-95q-26 -77 -87 -138q-39 -39 -104 -67t-148 -28h-190v233h-85v45h85v139h-85v45h85v228h190q83 0 148 -28t104 -67q59 -59 85 -133h97zM530 122q51 47 75 111h-416v-184h131q132 0 210 73zM189 641v-179h414
q-25 61 -73 105q-79 74 -210 74h-131zM626 345q0 37 -8 72h-429v-139h430q7 28 7 67z" />
    <glyph glyph-name="minus" unicode="&#x2212;" horiz-adv-x="645" 
d="M575 367v-45h-505v45h505z" />
    <glyph glyph-name="notequal" unicode="&#x2260;" horiz-adv-x="645" 
d="M575 290v-45h-255l-38 -155h-45l38 155h-205v45h216l27 110h-243v45h254l38 155h45l-38 -155h206v-45h-217l-27 -110h244z" />
    <glyph glyph-name="lessequal" unicode="&#x2264;" horiz-adv-x="984" 
d="M358 -1q-23 0 -39.5 16.5t-16.5 39.5t16.5 39.5t39.5 16.5t39.5 -16.5t16.5 -39.5t-16.5 -39.5t-39.5 -16.5zM273 114q-23 0 -39.5 16.5t-16.5 39.5t16.5 39.5t39.5 16.5t39.5 -16.5t16.5 -39.5t-16.5 -39.5t-39.5 -16.5zM188 229q-23 0 -39.5 16.5t-16.5 39.5t16.5 39.5
t39.5 16.5t39.5 -16.5t16.5 -39.5t-16.5 -39.5t-39.5 -16.5zM358 801q23 0 39.5 -16.5t16.5 -39.5t-16.5 -39.5t-39.5 -16.5t-39.5 16.5t-16.5 39.5t16.5 39.5t39.5 16.5zM273 686q23 0 39.5 -16.5t16.5 -39.5t-16.5 -39.5t-39.5 -16.5t-39.5 16.5t-16.5 39.5t16.5 39.5
t39.5 16.5zM188 571q23 0 39.5 -16.5t16.5 -39.5t-16.5 -39.5t-39.5 -16.5t-39.5 16.5t-16.5 39.5t16.5 39.5t39.5 16.5zM928 456q23 0 39.5 -16.5t16.5 -39.5t-16.5 -39.5t-39.5 -16.5t-39.5 16.5t-16.5 39.5t16.5 39.5t39.5 16.5zM763 456q23 0 39.5 -16.5t16.5 -39.5
t-16.5 -39.5t-39.5 -16.5t-39.5 16.5t-16.5 39.5t16.5 39.5t39.5 16.5zM268 456q23 0 39.5 -16.5t16.5 -39.5t-16.5 -39.5t-39.5 -16.5t-39.5 16.5t-16.5 39.5t16.5 39.5t39.5 16.5zM103 456q23 0 39.5 -16.5t16.5 -39.5t-16.5 -39.5t-39.5 -16.5t-39.5 16.5t-16.5 39.5
t16.5 39.5t39.5 16.5zM433 456q23 0 39.5 -16.5t16.5 -39.5t-16.5 -39.5t-39.5 -16.5t-39.5 16.5t-16.5 39.5t16.5 39.5t39.5 16.5zM598 456q23 0 39.5 -16.5t16.5 -39.5t-16.5 -39.5t-39.5 -16.5t-39.5 16.5t-16.5 39.5t16.5 39.5t39.5 16.5z" />
    <glyph glyph-name="greaterequal" unicode="&#x2265;" horiz-adv-x="984" 
d="M386 456q23 0 39.5 -16.5t16.5 -39.5t-16.5 -39.5t-39.5 -16.5t-39.5 16.5t-16.5 39.5t16.5 39.5t39.5 16.5zM551 456q23 0 39.5 -16.5t16.5 -39.5t-16.5 -39.5t-39.5 -16.5t-39.5 16.5t-16.5 39.5t16.5 39.5t39.5 16.5zM881 456q23 0 39.5 -16.5t16.5 -39.5t-16.5 -39.5
t-39.5 -16.5t-39.5 16.5t-16.5 39.5t16.5 39.5t39.5 16.5zM716 456q23 0 39.5 -16.5t16.5 -39.5t-16.5 -39.5t-39.5 -16.5t-39.5 16.5t-16.5 39.5t16.5 39.5t39.5 16.5zM221 456q23 0 39.5 -16.5t16.5 -39.5t-16.5 -39.5t-39.5 -16.5t-39.5 16.5t-16.5 39.5t16.5 39.5
t39.5 16.5zM56 456q23 0 39.5 -16.5t16.5 -39.5t-16.5 -39.5t-39.5 -16.5t-39.5 16.5t-16.5 39.5t16.5 39.5t39.5 16.5zM796 571q23 0 39.5 -16.5t16.5 -39.5t-16.5 -39.5t-39.5 -16.5t-39.5 16.5t-16.5 39.5t16.5 39.5t39.5 16.5zM711 686q23 0 39.5 -16.5t16.5 -39.5
t-16.5 -39.5t-39.5 -16.5t-39.5 16.5t-16.5 39.5t16.5 39.5t39.5 16.5zM626 801q23 0 39.5 -16.5t16.5 -39.5t-16.5 -39.5t-39.5 -16.5t-39.5 16.5t-16.5 39.5t16.5 39.5t39.5 16.5zM796 229q-23 0 -39.5 16.5t-16.5 39.5t16.5 39.5t39.5 16.5t39.5 -16.5t16.5 -39.5
t-16.5 -39.5t-39.5 -16.5zM711 114q-23 0 -39.5 16.5t-16.5 39.5t16.5 39.5t39.5 16.5t39.5 -16.5t16.5 -39.5t-16.5 -39.5t-39.5 -16.5zM626 -1q-23 0 -39.5 16.5t-16.5 39.5t16.5 39.5t39.5 16.5t39.5 -16.5t16.5 -39.5t-16.5 -39.5t-39.5 -16.5z" />
    <glyph glyph-name="commaaccent" unicode="&#xf6c3;" horiz-adv-x="285" 
d="M125 -50h60l-55 -140h-40z" />
    <glyph glyph-name="apple" unicode="&#xf8ff;" horiz-adv-x="1439" 
d="M629 -62h-7q25 21 25 45q0 35 -29 41q5 -30 5 -52q0 -38 -32 -58t-72 -20q-26 0 -46.5 14.5t-20.5 39.5q0 23 15.5 32.5t30.5 9.5q9 0 13 -1q14 27 45 40v3q-3 7 -3 23q-20 -41 -55 -41q-19 0 -32 20.5t-13 50.5q0 21 18 66.5t18 59.5q0 23 -9 23q-11 0 -21.5 -12
t-11.5 -18q0 -35 -34 -53q0 -142 -116 -142q-34 0 -57 16t-23 49q0 21 12 38t31 17q25 0 25 -29q0 -21 -11 -37.5t-30 -16.5q-3 0 -8.5 2.5t-7.5 2.5q3 -12 13 -20.5t20 -8.5q16 0 29 10.5t22 33t14 39t12 46.5q-22 9 -35 31q-9 -3 -14 -3q-56 0 -56 58q0 45 32 80.5
t77 35.5q36 0 63.5 -12.5t35.5 -12.5q6 0 16 2v-4q-56 -13 -92 -63q-2 19 -16 30.5t-34 11.5q-29 0 -51.5 -24.5t-22.5 -54.5q0 -42 45 -42q8 0 14 3q-5 10 -5 28q0 20 10.5 34t21.5 14q17 0 17 -20q0 -16 -10.5 -32t-25.5 -25q8 -18 31 -28q17 68 47 105q11 13 31.5 29
t38.5 18v-5q-47 -22 -47 -109q0 -10 2 -38q32 17 32 46q0 24 -12 38v1q13 -6 15 -30q17 32 49 32q23 0 35 -21.5t12 -52.5q0 -11 -17.5 -57t-17.5 -67q0 -17 9 -17q12 0 22 15t17.5 42t13 52t12 57.5l9.5 46.5q16 -8 26 -8q11 0 34 16q-2 -12 -12.5 -57t-16.5 -79t-6 -58v-7
l1 -14q37 -8 37 -50q0 -28 -24 -48zM1393 90l-113 -22l8 -40l-70 56q-25 -57 -64 -98q17 -7 41 -7q53 0 73 41h2q-4 -23 -25.5 -37t-45.5 -14q-25 0 -53 10q-57 -59 -113 -59q-58 0 -58 95q-1 -1 -6 -1q-31 0 -53.5 28.5t-22.5 80.5q0 35 41 78.5t86 43.5q17 0 28.5 -12.5
t11.5 -39.5q0 -34 -32.5 -59t-68.5 -29q-10 -50 -10 -66q0 -17 20 -17q4 0 6 1v1q0 31 19.5 63.5t47.5 32.5q13 0 13 -20q0 -25 -23.5 -53t-49.5 -31q0 -87 56 -87q44 0 98 54q-63 30 -63 96q0 25 14.5 47t38.5 27v-3q-23 -6 -35 -27t-12 -47q0 -58 64 -86q44 49 60 102
l-90 27l39 16l-52 107l42 -13l-9 63l41 -45l24 35l24 -78l34 107l17 -28l62 37v-71h38l-82 -81l81 23l-13 -42l61 -6l-59 -28zM797 -4v-4q-8 0 -15 -5t-7 -13q0 -9 6.5 -15t15.5 -6q29 0 50 30t21 59q0 17 -11 35q-30 -63 -70 -63q-30 0 -30 42q0 27 14.5 43t29.5 19
q11 70 11 109q0 8 -9 8q-5 0 -12.5 -6t-14.5 -21t-7 -35q0 -21 -23 -138t-27 -130q-16 8 -26 8q-9 0 -33 -16l17 90l27.5 151t12.5 84q0 23 -12.5 37t-27 22.5t-27 38t-12.5 79.5q0 27 18.5 86.5t18.5 88.5q0 17 -7 17q-9 0 -23.5 -17t-24.5 -43q-2 -13 -9 -50.5l-13.5 -73
t-7.5 -38.5q-18 9 -26 9q-18 0 -31 -10q1 10 10.5 61t16 93t6.5 54q0 14 -7 14q-13 0 -30 -42h-8q5 16 9.5 25.5t15.5 18t26 8.5q40 0 47 -45l7.5 11.5t9 13t9.5 10.5t13 8.5t15 2.5q23 0 36.5 -27.5t13.5 -63.5q0 -40 -20 -99t-20 -87q0 -29 11.5 -44t26 -18.5t28 -17
t17.5 -37.5q23 38 46 38q27 0 43.5 -34.5t16.5 -64.5q0 -31 -13 -61q15 -22 15 -46q0 -35 -20 -64t-54 -29q-13 0 -22 8t-9 20q0 9 6.5 15.5t15.5 6.5h6zM171 257h-4l3 3q9 0 21 8.5t12 20.5v5q-18 -7 -39 -7t-44.5 8.5t-23.5 25.5q0 12 14 18t27 6q17 0 39.5 -11.5
t31.5 -26.5q35 15 35 46q0 19 -8 28q-27 -16 -56 -16q-47 0 -77.5 33t-30.5 89q0 15 10 43q-26 19 -26 58q0 37 23.5 69.5t56.5 32.5q3 0 7.5 -0.5t5.5 -0.5v-5h-9q-32 0 -55 -30t-23 -65q0 -33 24 -50q27 61 79 121t86 60q31 0 31 -53q0 -43 -35.5 -82.5t-81.5 -56.5v-1
q-1 -1 -1 -2q-22 -90 -22 -116q0 -15 9 -24.5t16 -11.5t12 -2q24 0 49 18q-14 10 -34 10q-22 0 -28 -6v3q9 9 25 9q26 0 42 -12q42 37 42 91q0 44 -28 44q-27 0 -44 -23.5t-17 -50.5q0 -30 18 -30q14 0 22.5 17.5t8.5 34.5q0 4 -2 12h6q2 -4 2 -12q0 -19 -11 -38.5
t-26 -19.5q-24 0 -24 38q0 27 18.5 53t45.5 26q21 0 33.5 -18.5t12.5 -44.5q0 -53 -48 -87q12 -12 12 -34q0 -37 -43 -55q1 -1 1 -4q0 -14 -13 -24.5t-27 -10.5zM1177 457h9q-23 -86 -61 -86q-17 0 -31.5 12.5t-18.5 36.5q-15 -30 -26.5 -40t-25.5 -10q-27 0 -41.5 34
t-14.5 67q0 35 37.5 82.5t67.5 47.5q17 0 24 -19q4 24 9.5 50l9 41.5t3.5 17.5q16 -8 26 -8t35 16q-55 -291 -55 -304t7 -13q13 0 26.5 25.5t19.5 49.5zM949 424h7q-13 -53 -45 -53q-38 0 -48 48q-15 -29 -26.5 -39t-24.5 -10q-27 0 -42 34t-15 67q0 35 37.5 82.5t67.5 47.5
q19 0 26 -23l5 20q19 -7 27 -7t33 15q-38 -195 -38 -211q0 -13 6 -13q14 0 30 42zM1393 424h8q-15 -53 -46 -53q-39 0 -47 48q-16 -30 -27 -39.5t-24 -9.5q-27 0 -42.5 34t-15.5 67q0 35 38 82.5t68 47.5q17 0 26 -23l5 20q19 -7 26 -7q10 0 33 15q-2 -11 -12 -61t-18 -94
t-8 -56q0 -13 7 -13q13 0 29 42zM500 424h7q-13 -53 -46 -53q-16 0 -29.5 12t-17.5 36q-15 -30 -26 -39.5t-26 -9.5q-26 0 -40.5 34t-14.5 67q0 35 38 82.5t68 47.5q15 0 24 -23l5 20q19 -7 26 -7t12.5 2t13 7.5t8.5 5.5q-2 -12 -12.5 -61.5t-18.5 -93.5t-8 -56q0 -13 8 -13
q13 0 29 42zM336 -74h-4q-18 0 -37 9.5t-19 28.5q0 21 26 21q18 0 33.5 -12.5t15.5 -28.5q0 -1 -0.5 -4t-0.5 -4q24 6 42 23t18 44q0 14 -5 29h3q6 -9 6 -29q0 -28 -20 -49t-48 -26q-15 -28 -57 -28q-27 0 -51.5 12.5t-24.5 36.5q0 12 7 20t19 8q7 0 12 -1q-64 56 -144 56
q-26 0 -85 -8q18 7 42 14t31 10q35 13 63 44t28 59q0 33 -22.5 52t-56.5 19q-71 0 -71 -41q0 -12 13.5 -19.5t29.5 -7.5q19 0 52 27v-7q-22 -31 -52 -31q-20 0 -35.5 10.5t-15.5 27.5q0 48 75 48q44 0 68 -22.5t24 -59.5q0 -28 -25 -56t-46 -41l14 -4q42 -9 70 -25.5
t53 -51.5h-1v-1q-3 0 -8.5 1.5t-8.5 1.5q-25 0 -25 -22q0 -21 24.5 -32.5t46.5 -11.5q31 0 47 21zM1091 557q-2 36 -15 36q-5 0 -8.5 -3t-6 -7t-4.5 -10.5t-3 -11l-2.5 -11.5t-1.5 -8q-25 -110 -25 -153q0 -8 7 -8q19 0 30 34t29 142zM506 -24h-12q-33 0 -33 -31
q0 -21 17 -33t39 -12q21 0 40.5 13.5t19.5 35.5q0 10 -3.5 22.5t-9 28.5t-7.5 21q-29 -10 -40 -34q14 -5 22 -16t8 -20q0 -6 -5.5 -12.5t-14.5 -6.5t-16 9.5t-7 19.5t2 15zM1306 452q2 29 17 97q0 44 -14 44q-19 0 -26 -51q-24 -132 -24 -153q0 -8 6 -8q24 0 41 71zM862 452
q1 21 17 97q0 44 -14 44q-6 0 -10 -3.5t-7 -11t-4.5 -12.5t-3 -14t-1.5 -10q-24 -132 -24 -153q0 -8 5 -8q25 0 42 71zM413 452q2 29 17 97q0 44 -14 44q-9 0 -16.5 -18t-9.5 -33q-24 -106 -24 -153q0 -8 6 -8q23 0 41 71zM212 662q0 -1 -4 -10t-9 -23.5l-11 -30.5l-12 -33
l-10 -28q40 18 69 62t29 91q0 20 -14 20q-9 0 -17 -10t-21 -38zM1182 388h2q-5 -31 -26.5 -49.5t-49.5 -22.5q0 -21 -21 -37t-49 -16q-24 0 -43.5 11.5t-19.5 37.5q0 15 12.5 29t29.5 15v-3q-13 -2 -23.5 -12.5t-10.5 -22.5q0 -41 57 -41q61 0 63 39q-2 -1 -6 -1
q-18 0 -30.5 7.5t-12.5 20.5q0 6 6 10.5t12 4.5q12 0 22 -9.5t14 -22.5q25 3 46.5 21t27.5 41zM936 356l8 -4q-6 -27 -33.5 -46.5t-60.5 -19.5h-8q-13 -13 -38 -13q-56 0 -78 42v1q35 -39 76 -39q22 0 33 10q-35 5 -68 25.5t-33 56.5q0 18 8 27l4 -3q-4 -14 -4 -22
q0 -33 32 -51t70 -22q3 6 3 14q0 18 -15 30.5t-35 12.5q-18 0 -31 -8l-3 1q12 12 33 12t38.5 -13.5t17.5 -33.5q0 -7 -2 -15h3q29 0 53 14.5t30 43.5zM960 113q28 4 46 41t18 66q0 17 -8 17q-32 0 -56 -124zM981 26v-2q19 0 42.5 27.5t23.5 51.5q0 11 -7 11
q-22 0 -40.5 -30.5t-18.5 -57.5zM200 304q-9 14 -28 24.5t-35 10.5q-31 0 -31 -18q0 -24 53 -24q21 0 41 7zM630 255l-4 1v2q-3 20 -14.5 29.5t-22.5 9.5q-7 0 -31 -11.5t-48 -11.5q-26 0 -26 20q0 13 11 19t23 6l46 -5q25 0 25 18q0 11 -9 17.5t-21 6.5q-22 0 -22 -14
q0 -11 12 -11q9 0 17 5l1 -6q-8 -4 -17 -4q-19 0 -19 15q0 8 10 14t19 6q15 0 25 -8t10 -20q0 -23 -31 -23l-46 5q-30 0 -30 -21q0 -14 21 -14q13 0 39 12.5t35 12.5q21 0 34 -14t13 -36zM800 109q-16 -1 -27 -19t-11 -38q0 -28 18 -28q4 0 7 6t5 17.5l3.5 20t3 23t1.5 18.5
zM344 -54q0 14 -12.5 23.5t-26.5 9.5q-21 0 -21 -20q0 -13 15 -19.5t30 -6.5t15 13zM306 191q33 23 33 51q0 15 -12 15q-13 0 -19 -14t-6 -29t4 -23zM1099 326h3q-6 26 -27 26q-12 0 -12 -10q0 -16 36 -16zM514 -26q-1 -4 -1 -10q0 -24 12 -24t12 9q0 15 -23 25z" />
    </font>
</defs>
</svg>
