<?xml version="1.0" standalone="no"?>
<!DOCTYPE svg PUBLIC "-//W3C//DTD SVG 1.1//EN" "http://www.w3.org/Graphics/SVG/1.1/DTD/svg11.dtd" >
<svg xmlns="http://www.w3.org/2000/svg">
<metadata></metadata>
<defs>
<font id="sf_ui_displaylight" horiz-adv-x="1219" >
<font-face units-per-em="2048" ascent="1638" descent="-410" />
<missing-glyph horiz-adv-x="454" />
<glyph horiz-adv-x="0" />
<glyph unicode="&#xd;" horiz-adv-x="0" />
<glyph unicode=" "  horiz-adv-x="454" />
<glyph unicode="&#x09;" horiz-adv-x="454" />
<glyph unicode="&#xa0;" horiz-adv-x="454" />
<glyph unicode="!" horiz-adv-x="531" d="M170 85q0 40 27.5 67.5t67.5 27.5q41 0 68.5 -27.5t27.5 -67.5t-28 -67.5t-68 -27.5t-67.5 27.5t-27.5 67.5zM196 1443h138l-8 -987h-121z" />
<glyph unicode="&#x22;" horiz-adv-x="703" d="M123 955v488h123v-488h-123zM457 955v488h123v-488h-123z" />
<glyph unicode="#" horiz-adv-x="1214" d="M38 426l21 111h232l76 381h-218l22 110h218l87 417h111l-85 -417h339l87 417h111l-86 -417h248l-21 -110h-250l-77 -381h235l-21 -111h-237l-87 -426h-112l88 426h-341l-87 -426h-111l87 426h-229zM400 535h342l77 384h-341z" />
<glyph unicode="$" d="M97 391h130q8 -115 98.5 -191.5t232.5 -89.5v579l-55 15q-189 48 -280 139t-91 232q0 161 116.5 266.5t309.5 119.5v138h104v-137q186 -13 305.5 -119.5t124.5 -262.5h-130q-4 104 -88.5 178t-211.5 85v-544l58 -15q210 -53 304 -144.5t94 -244.5q0 -172 -123 -280.5 t-333 -122.5v-142h-104v141q-203 13 -331 123t-130 277zM263 1082q0 -101 71 -163.5t224 -96.5v521q-128 -6 -211.5 -79.5t-83.5 -181.5zM662 108q147 7 235.5 82.5t88.5 194.5q0 112 -75.5 178t-248.5 105v-560z" />
<glyph unicode="%" horiz-adv-x="1470" d="M50 1105q0 160 76.5 256.5t205.5 96.5t205 -96.5t76 -256.5q0 -161 -76 -257.5t-205 -96.5t-205.5 96.5t-76.5 257.5zM132 0l1065 1443h134l-1063 -1443h-136zM173 1105q0 -119 42.5 -189t116.5 -70q73 0 115.5 70t42.5 189t-42 188t-116 69t-116.5 -69.5t-42.5 -187.5z M858 340q0 160 76.5 256.5t205.5 96.5t205 -96.5t76 -256.5q0 -161 -76 -257.5t-205 -96.5t-205.5 96.5t-76.5 257.5zM981 340q0 -119 42.5 -189t116.5 -70q73 0 115.5 70t42.5 189t-42 188t-116 69t-116.5 -69.5t-42.5 -187.5z" />
<glyph unicode="&#x26;" horiz-adv-x="1372" d="M79 376q0 242 279 391q9 4 27 13.5t32 17t17 8.5q-109 112 -152.5 189.5t-43.5 157.5q0 133 102.5 222.5t253.5 89.5q152 0 252 -88t100 -224q0 -108 -76 -196.5t-250 -178.5l397 -425q93 158 93 401v58h127v-59q0 -291 -131 -491l250 -262h-172l-159 168 q-92 -90 -217.5 -140.5t-257.5 -50.5q-208 0 -339.5 111.5t-131.5 287.5zM214 384q0 -128 96.5 -209.5t250.5 -81.5q106 0 211 44.5t171 117.5l-434 468q-40 -18 -72 -39q-117 -67 -170 -139.5t-53 -160.5zM368 1146q0 -63 38.5 -126t138.5 -164q145 72 209 141t64 151 q0 90 -63.5 149t-160.5 59q-96 0 -161 -60.5t-65 -149.5z" />
<glyph unicode="'" horiz-adv-x="369" d="M123 955v488h123v-488h-123z" />
<glyph unicode="(" horiz-adv-x="607" d="M166 598q0 151 22 281t63.5 232.5t86 178.5t104.5 152h115q-46 -57 -88 -134.5t-82 -182t-63.5 -241.5t-23.5 -284q0 -476 255 -868h-120q-53 68 -98 148.5t-85 187.5t-63 243.5t-23 286.5z" />
<glyph unicode=")" horiz-adv-x="607" d="M51 1442h115q60 -76 104.5 -152t86 -178.5t63.5 -232.5t22 -281q0 -150 -23 -286.5t-63.5 -243.5t-85.5 -187.5t-98 -148.5h-120q255 392 255 868q0 147 -23.5 284t-63 241.5t-81.5 182t-88 134.5z" />
<glyph unicode="*" horiz-adv-x="973" d="M138 976l268 142l-268 141l50 92l258 -165l-12 306h105l-12 -306l258 165l50 -91l-267 -142l267 -142l-50 -90l-258 162l12 -303h-105l12 304l-258 -163z" />
<glyph unicode="+" horiz-adv-x="1218" d="M109 510v124h438v465h124v-465h438v-124h-438v-478h-124v478h-438z" />
<glyph unicode="," horiz-adv-x="509" d="M121 -242l86 434h141l-123 -434h-104z" />
<glyph unicode="-" horiz-adv-x="874" d="M109 510v124h656v-124h-656z" />
<glyph unicode="." horiz-adv-x="509" d="M160 85q0 40 27.5 67.5t67.5 27.5q41 0 68 -27t27 -68q0 -40 -27.5 -67.5t-67.5 -27.5t-67.5 27.5t-27.5 67.5z" />
<glyph unicode="/" horiz-adv-x="559" d="M0 -330l443 1774h116l-446 -1774h-113z" />
<glyph unicode="0" horiz-adv-x="1222" d="M88 722q0 342 140 543t383 201q244 0 383 -200.5t139 -542.5q0 -344 -139 -545t-383 -201q-245 0 -384 200.5t-139 544.5zM226 723q0 -290 102 -458t283 -168t283 168t102 457q0 287 -102.5 455t-282.5 168q-179 0 -282 -169t-103 -453z" />
<glyph unicode="1" horiz-adv-x="863" d="M94 1032v146q20 12 194 133t195 134h134v-1445h-132v1298h-4q-8 -5 -81 -56.5t-164.5 -115t-141.5 -94.5z" />
<glyph unicode="2" horiz-adv-x="1152" d="M115 1038v1q1 184 132.5 305.5t329.5 121.5q189 0 319 -114t130 -280q0 -118 -65.5 -228.5t-245.5 -297.5l-402 -420v-4h750v-122h-941v96l510 539q155 163 206.5 249t51.5 180q0 118 -92 200t-225 82q-139 0 -231.5 -87.5t-94.5 -219.5v-1h-132z" />
<glyph unicode="3" horiz-adv-x="1183" d="M90 374h132q8 -122 108.5 -199.5t255.5 -77.5q157 0 259 83t102 211q0 138 -100 217t-274 79h-174v116h168q141 0 230 78t89 199q0 119 -84.5 192.5t-228.5 73.5q-134 0 -222 -74t-99 -194h-132q13 174 138.5 281t320.5 107q191 0 318 -104.5t127 -264.5q0 -135 -81 -227 t-220 -117v-4q166 -10 264.5 -105.5t98.5 -248.5q0 -120 -66 -216t-180 -149t-253 -53q-216 0 -353 111t-144 286z" />
<glyph unicode="4" horiz-adv-x="1214" d="M75 326v125q222 373 665 994h200v-998h215v-121h-215v-326h-133v326h-732zM213 447h594v878h-2q-364 -504 -592 -874v-4z" />
<glyph unicode="5" horiz-adv-x="1186" d="M121 376h134q14 -121 113 -199.5t239 -78.5q161 0 264.5 102.5t103.5 261.5q0 158 -102.5 262t-259.5 104q-109 0 -199 -49t-140 -135h-131l82 799h800v-122h-687l-54 -533h4q53 74 145.5 116.5t201.5 42.5q206 0 341.5 -137t135.5 -345q0 -214 -143 -351t-364 -137 q-130 0 -237.5 51t-172.5 142t-74 206z" />
<glyph unicode="6" horiz-adv-x="1206" d="M91 691q0 363 145.5 569t402.5 206q180 0 307 -100t158 -266h-138q-27 110 -117 177.5t-211 67.5q-198 0 -306.5 -176.5t-108.5 -497.5h3q44 122 161.5 198t263.5 76q206 0 342.5 -136t136.5 -341q0 -212 -142 -351.5t-359 -139.5q-145 0 -259.5 71t-181.5 202 q-97 169 -97 441zM262 474q0 -158 105.5 -266.5t260.5 -108.5q152 0 257.5 106t105.5 259q0 155 -102.5 257.5t-259.5 102.5q-154 0 -260.5 -101.5t-106.5 -248.5z" />
<glyph unicode="7" horiz-adv-x="1105" d="M79 1321v122h940v-128l-661 -1315h-145l669 1317v4h-803z" />
<glyph unicode="8" horiz-adv-x="1211" d="M91 392q0 136 89 238t233 133v3q-123 34 -195 120.5t-72 202.5q0 164 130 270.5t329 106.5q200 0 329 -106.5t129 -270.5q0 -114 -72 -201t-194 -122v-3q144 -31 233 -133t89 -238q0 -182 -143.5 -298.5t-370.5 -116.5q-226 0 -370 117t-144 298zM230 400 q0 -132 104.5 -217.5t270.5 -85.5t270.5 85.5t104.5 217.5q0 130 -104.5 213t-270.5 83q-165 0 -270 -83t-105 -213zM282 1078q0 -114 90.5 -187t232.5 -73q141 0 231.5 73t90.5 187q0 117 -89.5 193t-232.5 76t-233 -76t-90 -193z" />
<glyph unicode="9" horiz-adv-x="1206" d="M76 972q0 214 142 354t359 140q146 0 260.5 -71t180.5 -202q97 -169 97 -441q0 -363 -145 -569t-402 -206q-182 0 -309 100.5t-157 265.5h139q27 -110 116 -178t212 -68q193 0 301 169.5t113 474.5q0 4 -0.5 15.5t-0.5 17.5h-1h-1q-41 -122 -159 -199t-266 -77 q-206 0 -342.5 135.5t-136.5 338.5zM214 976q0 -152 103 -254.5t260 -102.5q155 0 261.5 102t106.5 248q0 157 -106 265.5t-261 108.5q-154 0 -259 -106t-105 -261z" />
<glyph unicode=":" horiz-adv-x="509" d="M160 85q0 40 27.5 67.5t67.5 27.5q41 0 68 -27t27 -68q0 -40 -27.5 -67.5t-67.5 -27.5t-67.5 27.5t-27.5 67.5zM160 836q0 40 27.5 67.5t67.5 27.5q41 0 68 -27.5t27 -67.5t-27.5 -67.5t-67.5 -27.5t-67.5 27.5t-27.5 67.5z" />
<glyph unicode=";" horiz-adv-x="509" d="M96 -242l84 434h142l-123 -434h-103zM160 836q0 40 27.5 67.5t67.5 27.5q41 0 68 -27.5t27 -67.5t-27.5 -67.5t-67.5 -27.5t-67.5 27.5t-27.5 67.5z" />
<glyph unicode="&#x3c;" d="M184 502v109l851 543v-146l-717 -443v-8l717 -428v-145z" />
<glyph unicode="=" d="M123 323v118h973v-118h-973zM123 703v118h973v-118h-973z" />
<glyph unicode="&#x3e;" d="M184 -16v146l717 428v8l-717 443v146l851 -543v-109z" />
<glyph unicode="?" horiz-adv-x="972" d="M58 1079q9 165 120 271t299 106q179 0 294.5 -102t115.5 -256q0 -108 -52.5 -190.5t-158.5 -150.5q-98 -63 -133 -115.5t-35 -136.5v-75h-133v94q-1 98 45 168t152 139q95 63 134.5 122t39.5 139q0 107 -77 176t-197 69t-197 -70t-87 -188h-130zM348 85q0 40 27.5 67.5 t67.5 27.5q41 0 68 -27t27 -68q0 -40 -27.5 -67.5t-67.5 -27.5t-67.5 27.5t-27.5 67.5z" />
<glyph unicode="@" horiz-adv-x="1770" d="M87 604q0 182 61 336.5t169 263t261 169.5t332 61q231 0 413.5 -93t284.5 -263t102 -388q0 -240 -94 -381t-258 -141q-90 0 -153.5 50.5t-74.5 133.5h-7q-34 -86 -101.5 -131.5t-160.5 -45.5q-155 0 -250.5 116.5t-95.5 305.5q0 184 96.5 300t249.5 116q87 0 156.5 -44 t97.5 -117h7v141h116v-572q0 -70 36 -110.5t103 -40.5q102 0 163 112t61 310q0 286 -195 464.5t-505 178.5q-201 0 -362 -94t-251.5 -262t-90.5 -379q0 -225 94 -392.5t257 -254t373 -86.5q221 0 332 44v-99q-127 -44 -333 -44q-243 0 -430.5 98.5t-295 289.5t-107.5 448z M639 594q0 -141 64.5 -225.5t173.5 -84.5q111 0 177 86t66 229q0 141 -65 224t-177 83q-109 0 -174 -85t-65 -227z" />
<glyph unicode="A" horiz-adv-x="1262" d="M23 0l540 1443h136l539 -1443h-144l-160 442h-606l-160 -442h-145zM369 560h524l-259 714h-6z" />
<glyph unicode="B" horiz-adv-x="1217" d="M135 0v1443h531q186 0 301.5 -98t115.5 -258q0 -120 -74.5 -212t-189.5 -113v-7q152 -18 245 -114.5t93 -244.5q0 -185 -130 -290.5t-358 -105.5h-534zM271 121h380q176 0 271 73.5t95 208.5t-99.5 208t-285.5 73h-361v-563zM271 802h326q164 0 256 71.5t92 198.5 q0 118 -82 184t-226 66h-366v-520z" />
<glyph unicode="C" horiz-adv-x="1371" d="M77 725q0 339 174.5 540t468.5 201q151 0 277.5 -61t207.5 -171t100 -249h-137q-30 156 -155 255t-293 99q-230 0 -366.5 -166.5t-136.5 -447.5q0 -285 136.5 -453t367.5 -168q173 0 294 87t153 236h137q-38 -211 -194 -330.5t-391 -119.5q-295 0 -469 202.5t-174 545.5z " />
<glyph unicode="D" horiz-adv-x="1370" d="M135 0v1443h475q324 0 504 -189.5t180 -531.5q0 -343 -179.5 -532.5t-504.5 -189.5h-475zM272 124h330q266 0 409.5 155t143.5 442q0 288 -143.5 443t-409.5 155h-330v-1195z" />
<glyph unicode="E" horiz-adv-x="1104" d="M135 0v1443h871v-124h-735v-519h698v-122h-698v-554h735v-124h-871z" />
<glyph unicode="F" horiz-adv-x="1061" d="M135 0v1443h856v-124h-720v-542h662v-122h-662v-655h-136z" />
<glyph unicode="G" horiz-adv-x="1409" d="M77 730q0 335 176.5 535.5t471.5 200.5q227 0 388 -125t202 -332h-142q-44 154 -163.5 242t-284.5 88q-235 0 -371.5 -163.5t-136.5 -445.5q0 -286 138 -456t370 -170q209 0 336 123t127 327v51h-448v120h584v-139q0 -286 -159 -447.5t-440 -161.5q-293 0 -470.5 206 t-177.5 547z" />
<glyph unicode="H" horiz-adv-x="1387" d="M135 0v1443h136v-642h844v642h137v-1443h-137v677h-844v-677h-136z" />
<glyph unicode="I" horiz-adv-x="406" d="M135 0v1443h136v-1443h-136z" />
<glyph unicode="J" horiz-adv-x="987" d="M42 331h135q5 -104 77.5 -169t184.5 -65q132 0 204.5 78t72.5 222v1046h136v-1048q0 -199 -109.5 -312t-303.5 -113q-173 0 -284.5 101t-112.5 260z" />
<glyph unicode="K" horiz-adv-x="1209" d="M135 0v1443h136v-748h8l686 748h173l-593 -638l652 -805h-175l-573 708l-178 -193v-515h-136z" />
<glyph unicode="L" horiz-adv-x="1052" d="M135 0v1443h136v-1319h723v-124h-859z" />
<glyph unicode="M" horiz-adv-x="1660" d="M135 0v1443h157l535 -1263h6l534 1263h158v-1443h-128v1184h-6l-502 -1177h-119l-501 1177h-6v-1184h-128z" />
<glyph unicode="N" horiz-adv-x="1393" d="M135 0v1443h135l846 -1205h7v1205h135v-1443h-132l-849 1206h-7v-1206h-135z" />
<glyph unicode="O" horiz-adv-x="1465" d="M77 721q0 343 177 544t478 201q302 0 479 -201t177 -544t-177 -543.5t-479 -200.5t-478.5 200.5t-176.5 543.5zM217 721q0 -284 139 -450.5t376 -166.5t376.5 167t139.5 450q0 284 -139.5 451t-376.5 167t-376 -167t-139 -451z" />
<glyph unicode="P" horiz-adv-x="1171" d="M135 0v1443h512q206 0 334.5 -124t128.5 -325t-129 -325.5t-335 -124.5h-375v-544h-136zM271 666h344q166 0 260.5 87t94.5 241t-94 240.5t-261 86.5h-344v-655z" />
<glyph unicode="Q" horiz-adv-x="1465" d="M77 721q0 343 177 544t478 201q302 0 479 -201t177 -544q0 -213 -71.5 -375.5t-204.5 -256.5l188 -258h-154l-145 198q-122 -52 -269 -52q-302 0 -478.5 200.5t-176.5 543.5zM217 721q0 -283 139.5 -450t375.5 -167q102 0 190 34l-187 257h154l143 -196 q104 77 159.5 211.5t55.5 310.5q0 284 -139 451t-376 167t-376 -167t-139 -451z" />
<glyph unicode="R" horiz-adv-x="1199" d="M135 0v1443h516q211 0 336.5 -114.5t125.5 -307.5q0 -153 -82 -262t-227 -146l349 -613h-159l-332 591h-22h-369v-591h-136zM271 712h369q157 0 244.5 80t87.5 225q0 143 -89.5 223.5t-247.5 80.5h-364v-609z" />
<glyph unicode="S" horiz-adv-x="1182" d="M65 392h137q11 -130 123 -210.5t281 -80.5q162 0 266.5 79t104.5 201q0 101 -73 164.5t-234 104.5l-179 46q-201 51 -293.5 140t-92.5 231q0 174 140 286.5t354 112.5q210 0 349.5 -111.5t145.5 -283.5h-137q-10 122 -109 196.5t-253 74.5q-151 0 -249.5 -75.5 t-98.5 -194.5q0 -93 71 -151.5t231 -99.5l156 -40q218 -55 315 -145t97 -240q0 -190 -142 -304.5t-381 -114.5q-226 0 -372 114.5t-157 300.5z" />
<glyph unicode="T" horiz-adv-x="1179" d="M38 1319v124h1103v-124h-483v-1319h-137v1319h-483z" />
<glyph unicode="U" horiz-adv-x="1386" d="M135 504v939h136v-931q0 -184 113 -296t309 -112t309 112t113 296v931h137v-939q0 -236 -151 -381.5t-408 -145.5t-407.5 145.5t-150.5 381.5z" />
<glyph unicode="V" horiz-adv-x="1262" d="M23 1443h145l460 -1273h6l461 1273h144l-540 -1443h-136z" />
<glyph unicode="W" horiz-adv-x="1854" d="M44 1443h142l318 -1233h6l349 1233h136l348 -1233h7l317 1233h143l-398 -1443h-126l-355 1209h-8l-355 -1209h-127z" />
<glyph unicode="X" horiz-adv-x="1263" d="M44 0l502 722v5l-498 716h165l421 -613h5l424 613h157l-507 -722v-4l499 -717h-164l-419 610h-5l-425 -610h-155z" />
<glyph unicode="Y" d="M24 1443h156l427 -685h5l427 685h156l-517 -819v-624h-137v624z" />
<glyph unicode="Z" horiz-adv-x="1224" d="M87 0v99l866 1214v6h-838v124h1011v-100l-864 -1213v-6h876v-124h-1051z" />
<glyph unicode="[" horiz-adv-x="628" d="M186 -238v1682h417v-106h-288v-1472h301v-104h-430z" />
<glyph unicode="\" horiz-adv-x="559" d="M0 1444h116l443 -1774h-113z" />
<glyph unicode="]" horiz-adv-x="628" d="M12 -134h302v1472h-288v106h416v-1682h-430v104z" />
<glyph unicode="^" horiz-adv-x="847" d="M57 810l296 617h141l296 -617h-130l-231 494h-11l-231 -494h-130z" />
<glyph unicode="_" horiz-adv-x="819" d="M-58 -122h935v-100h-935v100z" />
<glyph unicode="`" horiz-adv-x="899" d="M267 1552h153l220 -301h-117z" />
<glyph unicode="a" horiz-adv-x="1048" d="M76 300q0 138 101 216.5t295 92.5l331 22v92q0 118 -71.5 183t-201.5 65q-113 0 -187 -54.5t-92 -150.5h-127q8 142 122.5 232.5t284.5 90.5q185 0 294.5 -96t109.5 -259v-734h-126v206h-3q-44 -98 -144.5 -158t-224.5 -60q-161 0 -261 86.5t-100 225.5zM211 299 q0 -87 70 -141t182 -54q145 0 242.5 86.5t97.5 214.5v119l-315 -22q-136 -9 -206.5 -60.5t-70.5 -142.5z" />
<glyph unicode="b" horiz-adv-x="1154" d="M129 0v1506h132v-650h3q47 109 145 171t225 62q203 0 329 -152t126 -398q0 -247 -126.5 -399t-330.5 -152q-129 0 -227.5 63.5t-146.5 176.5h-3v-228h-126zM260 538q0 -191 97.5 -311t251.5 -120q155 0 250 118.5t95 313.5q0 194 -94.5 313t-249.5 119t-252.5 -121 t-97.5 -312z" />
<glyph unicode="c" horiz-adv-x="1046" d="M65 539q0 250 132.5 400t351.5 150q182 0 302.5 -101t140.5 -250h-131q-20 103 -103 168t-208 65q-158 0 -254 -118t-96 -314q0 -199 96 -315.5t255 -116.5q124 0 206 59.5t105 165.5h131q-23 -154 -144 -249t-298 -95q-221 0 -353.5 148.5t-132.5 402.5z" />
<glyph unicode="d" horiz-adv-x="1157" d="M65 539q0 245 128 397.5t330 152.5q128 0 227 -63.5t143 -169.5h3v650h133v-1506h-126v229h-3q-47 -111 -146 -176t-228 -65q-203 0 -332 152.5t-129 398.5zM200 539q0 -194 96 -313t251 -119t252.5 120t97.5 312q0 191 -97.5 311.5t-252.5 120.5t-251 -119t-96 -313z " />
<glyph unicode="e" horiz-adv-x="1075" d="M65 536q0 251 131.5 402t348.5 151q212 0 338.5 -142.5t126.5 -382.5v-58h-808v-7q0 -182 96.5 -288t257.5 -106q119 0 202 55t107 145h131q-24 -139 -146.5 -228t-296.5 -89q-224 0 -356 147.5t-132 400.5zM202 614h670q-2 161 -92.5 259.5t-236.5 98.5 q-145 0 -238.5 -98.5t-102.5 -259.5z" />
<glyph unicode="f" horiz-adv-x="589" d="M23 966v111h150v123q0 141 65.5 206.5t200.5 65.5q49 0 89 -9v-111q-35 8 -78 8q-73 0 -108 -38t-36 -124v-121h219v-111h-219v-966h-133v966h-150z" />
<glyph unicode="g" horiz-adv-x="1144" d="M65 541q0 247 126 397.5t332 150.5q127 0 226.5 -64t147.5 -171h2v223h126v-1057q0 -184 -128 -289.5t-345 -105.5q-178 0 -296 76t-138 200h138q20 -73 102 -116.5t202 -43.5q151 0 242 72.5t91 196.5v219h-3q-46 -106 -144.5 -170t-225.5 -64q-203 0 -329 151t-126 395 zM200 541q0 -193 94 -310t249 -117q156 0 253 118.5t97 308.5q0 191 -97 310.5t-253 119.5q-154 0 -248.5 -118t-94.5 -312z" />
<glyph unicode="h" horiz-adv-x="1118" d="M129 0v1506h132v-630h3q46 102 137 157.5t219 55.5q176 0 280.5 -109t104.5 -290v-690h-132v669q0 142 -76.5 222t-213.5 80q-146 0 -234 -94.5t-88 -248.5v-628h-132z" />
<glyph unicode="i" horiz-adv-x="390" d="M105 1379q0 37 26.5 63.5t63.5 26.5t63 -26.5t26 -63.5q0 -36 -26 -62.5t-63 -26.5t-63.5 26.5t-26.5 62.5zM129 0v1077h132v-1077h-132z" />
<glyph unicode="j" horiz-adv-x="390" d="M-78 -254h27q97 0 138.5 42t41.5 140v1149h132v-1145q0 -156 -74.5 -227.5t-233.5 -71.5h-31v113zM105 1379q0 37 26.5 63.5t63.5 26.5t63 -26.5t26 -63.5q0 -36 -26 -62.5t-63 -26.5t-63.5 26.5t-26.5 62.5z" />
<glyph unicode="k" horiz-adv-x="988" d="M129 0v1506h132v-941h1l537 512h164l-486 -465l496 -612h-156l-434 531l-122 -111v-420h-132z" />
<glyph unicode="l" horiz-adv-x="390" d="M129 0v1506h132v-1506h-132z" />
<glyph unicode="m" horiz-adv-x="1677" d="M119 0v1077h124v-201h4q35 97 118 155t196 58q115 0 197.5 -61t113.5 -165h3q39 102 130.5 164t210.5 62q158 0 253 -97.5t95 -260.5v-731h-133v701q0 126 -66.5 198t-184.5 72q-120 0 -196.5 -83.5t-76.5 -214.5v-673h-132v714q0 115 -69 186t-180 71q-120 0 -197.5 -88 t-77.5 -226v-657h-132z" />
<glyph unicode="n" horiz-adv-x="1097" d="M119 0v1077h124v-201h4q46 102 136 157.5t219 55.5q177 0 279.5 -106.5t102.5 -289.5v-693h-132v672q0 143 -75 221t-212 78q-143 0 -228.5 -93t-85.5 -245v-633h-132z" />
<glyph unicode="o" horiz-adv-x="1109" d="M65 539q0 251 133.5 400.5t355.5 149.5q223 0 356.5 -149.5t133.5 -400.5t-133.5 -401t-356.5 -150q-222 0 -355.5 149.5t-133.5 401.5zM200 539q0 -201 95 -316.5t259 -115.5q165 0 260 115.5t95 316.5t-95 316.5t-260 115.5q-164 0 -259 -115.5t-95 -316.5z" />
<glyph unicode="p" horiz-adv-x="1144" d="M119 -357v1434h125v-223h3q43 104 145 169.5t228 65.5q204 0 331.5 -152t127.5 -398t-126.5 -398.5t-330.5 -152.5q-127 0 -224.5 63.5t-143.5 170.5h-3v-579h-132zM250 539q0 -192 96.5 -312t250.5 -120q156 0 251.5 118.5t95.5 312.5t-95.5 313.5t-251.5 119.5 q-154 0 -250.5 -120.5t-96.5 -311.5z" />
<glyph unicode="q" horiz-adv-x="1147" d="M65 539q0 246 127.5 398t332.5 152q130 0 229.5 -63.5t145.5 -171.5h3v223h126v-1434h-133v579h-3q-46 -107 -145 -170.5t-226 -63.5q-203 0 -330 152.5t-127 398.5zM200 538q0 -195 95 -313t250 -118t253 120t98 312q0 191 -98 311.5t-253 120.5t-250 -119t-95 -314z " />
<glyph unicode="r" horiz-adv-x="634" d="M119 0v1077h124v-191h4q28 96 100 149.5t173 53.5q47 0 84 -11v-131q-34 15 -102 15q-114 0 -182.5 -81.5t-68.5 -212.5v-668h-132z" />
<glyph unicode="s" horiz-adv-x="958" d="M65 303h134q12 -93 88.5 -148.5t197.5 -55.5q122 0 197.5 51.5t75.5 136.5q0 69 -46 109.5t-155 67.5l-182 46q-140 35 -209 103t-69 174q0 133 109.5 217.5t277.5 84.5q163 0 271 -88t116 -227h-127q-10 92 -80.5 147.5t-183.5 55.5q-109 0 -180.5 -51t-71.5 -132 q0 -65 48.5 -106t152.5 -67l165 -40q162 -41 230 -105.5t68 -179.5q0 -136 -116.5 -222t-298.5 -86q-172 0 -286.5 88.5t-125.5 226.5z" />
<glyph unicode="t" horiz-adv-x="598" d="M23 966v111h154v258h132v-258h213v-111h-213v-696q0 -84 34.5 -122t109.5 -38q42 0 74 4v-113q-25 -7 -100 -7q-134 0 -192 63t-58 208v701h-154z" />
<glyph unicode="u" horiz-adv-x="1097" d="M113 383v694h132v-672q0 -144 74 -221t211 -77q142 0 229 92.5t87 244.5v633h133v-1077h-125v202h-3q-45 -100 -138.5 -157t-219.5 -57q-176 0 -278 106.5t-102 288.5z" />
<glyph unicode="v" horiz-adv-x="977" d="M17 1077h139l331 -936h3l332 936h138l-401 -1077h-140z" />
<glyph unicode="w" horiz-adv-x="1477" d="M21 1077h133l244 -927h3l270 927h134l271 -927h3l244 927h133l-307 -1077h-139l-270 897h-3l-270 -897h-139z" />
<glyph unicode="x" horiz-adv-x="950" d="M24 0l380 542l-376 535h150l299 -434h3l296 434h150l-377 -530l374 -547h-150l-297 444h-4l-298 -444h-150z" />
<glyph unicode="y" horiz-adv-x="980" d="M17 1077h142l330 -943h3l331 943h140l-423 -1136q-70 -189 -141 -255.5t-202 -66.5q-29 0 -66 7v114q28 -7 64 -7q74 0 118.5 41.5t82.5 145.5l26 73z" />
<glyph unicode="z" horiz-adv-x="963" d="M83 0v100l645 864v2h-645v111h796v-101l-644 -862v-3h646v-111h-798z" />
<glyph unicode="{" horiz-adv-x="717" d="M128 540v158q99 0 138 48t39 170v268q0 172 87.5 251.5t276.5 79.5h56v-109h-53q-127 0 -184 -54.5t-57 -176.5v-313q0 -215 -175 -231v-24q175 -16 175 -233v-360q0 -119 58 -174.5t183 -55.5h53v-109h-56q-188 0 -276 82t-88 258v309q0 121 -39 168.5t-138 47.5z" />
<glyph unicode="|" horiz-adv-x="407" d="M147 -328v1771h113v-1771h-113z" />
<glyph unicode="}" horiz-adv-x="717" d="M-9 -216h54q125 0 183 55.5t58 174.5v360q0 217 175 233v24q-175 16 -175 231v313q0 122 -57 176.5t-184 54.5h-54v109h56q190 0 277.5 -79.5t87.5 -251.5v-268q0 -122 39 -170t137 -48v-158q-99 0 -137.5 -47t-38.5 -169v-309q0 -176 -88.5 -258t-276.5 -82h-56v109z " />
<glyph unicode="~" d="M123 559q0 148 74.5 235t202.5 87q60 0 115 -28.5t126 -96.5q58 -57 98 -80.5t78 -23.5q68 0 110 53t46 147h123q0 -147 -77 -236.5t-204 -89.5q-64 0 -119 28t-126 96q-60 59 -97.5 82t-75.5 23q-67 0 -106.5 -51.5t-44.5 -144.5h-123z" />
<glyph unicode="&#xa1;" horiz-adv-x="531" d="M170 1019q0 40 27.5 67.5t67.5 27.5q41 0 68.5 -27.5t27.5 -67.5t-28 -68t-68 -28t-67.5 28t-27.5 68zM196 -340l9 986h121l8 -986h-138z" />
<glyph unicode="&#xa2;" d="M111 714q0 229 124 377.5t326 171.5v183h131v-182q165 -14 282.5 -115.5t133.5 -244.5h-133q-22 113 -117.5 179t-229.5 66q-167 0 -274.5 -120t-107.5 -315q0 -196 107.5 -318.5t274.5 -122.5q140 0 232.5 60.5t113.5 178.5h133q-19 -145 -134.5 -242.5t-280.5 -111.5 v-187h-131v189q-203 23 -326.5 173t-123.5 381z" />
<glyph unicode="&#xa3;" d="M84 0v117q143 34 236 129t93 223q0 81 -37 196h-277v112h236q-22 60 -34.5 98t-23.5 93t-11 103q0 188 130.5 296.5t362.5 108.5q94 0 177 -16t131 -40v-123q-41 24 -125 40.5t-177 16.5q-170 0 -265 -75.5t-95 -204.5q0 -48 11 -104t23.5 -93.5t34.5 -99.5h470v-112 h-431q34 -105 34 -191q0 -67 -21 -125t-56.5 -101t-75.5 -73.5t-87 -52.5v-4h841v-118h-1064z" />
<glyph unicode="&#xa4;" d="M131 259l169 169q-75 102 -75 228t75 228l-169 168l82 82l168 -168q101 76 229 76q127 0 229 -75l166 167l83 -82l-167 -168q75 -102 75 -228q0 -128 -76 -229l168 -168l-83 -82l-167 168q-102 -75 -228 -75t-228 75l-169 -168zM325 656q0 -118 83.5 -202t201.5 -84 t202 84t84 202t-84 202t-202 84t-201.5 -84t-83.5 -202z" />
<glyph unicode="&#xa5;" d="M24 1443h157l426 -675h6l425 675h157l-471 -738h258v-106h-304v-184h304v-105h-304v-310h-136v310h-305v105h305v184h-305v106h259z" />
<glyph unicode="&#xa6;" horiz-adv-x="408" d="M148 -328v680h113v-680h-113zM148 765v678h113v-678h-113z" />
<glyph unicode="&#xa7;" horiz-adv-x="973" d="M80 549q0 99 64 169t178 97v12q-230 79 -230 268q0 133 108 216.5t279 83.5q164 0 270 -75.5t123 -203.5h-132q-12 76 -83.5 121.5t-179.5 45.5q-112 0 -182.5 -50.5t-70.5 -130.5q0 -67 52.5 -111t167.5 -73l130 -34q165 -42 242 -110t77 -172t-72.5 -181t-190.5 -99 v-12q254 -60 254 -257q0 -133 -110 -218t-282 -85q-167 0 -278 79.5t-122 207.5h134q12 -79 87 -126.5t185 -47.5q113 0 184.5 51t71.5 131q0 67 -53 110.5t-169 72.5l-129 33q-167 43 -245 112.5t-78 175.5zM215 573q0 -145 212 -193l81 -18q108 1 179 61t71 149 q0 147 -211 193l-81 18q-107 -1 -179 -61.5t-72 -148.5z" />
<glyph unicode="&#xa8;" horiz-adv-x="898" d="M178 1351q0 38 27.5 65.5t65.5 27.5t65.5 -27.5t27.5 -65.5t-27.5 -65t-65.5 -27t-65.5 27.5t-27.5 64.5zM534 1351q0 38 27.5 65.5t65.5 27.5t65.5 -27.5t27.5 -65.5t-27.5 -65t-65.5 -27t-65.5 27t-27.5 65z" />
<glyph unicode="&#xa9;" horiz-adv-x="1717" d="M76 626q0 165 61 311t165 249.5t249 163.5t308 60t308 -60t249.5 -163.5t165 -249.5t60.5 -311q0 -164 -60.5 -310t-165 -250t-249.5 -164t-308 -60t-308 60.5t-249 164t-165 249.5t-61 310zM185 626q0 -142 52.5 -268t142.5 -215t214.5 -140.5t264.5 -51.5t264.5 51.5 t214.5 140.5t142 215t52 268q0 191 -89 346t-243 242t-341 87q-140 0 -264.5 -51.5t-214.5 -140t-142.5 -214.5t-52.5 -269zM473 630q0 194 108.5 308.5t286.5 114.5q146 0 241.5 -78.5t115.5 -194.5h-108q-21 77 -86 126t-163 49q-128 0 -206 -87.5t-78 -237.5 q0 -153 78 -242t206 -89q99 0 164 45.5t84 123.5h109q-20 -119 -114.5 -192.5t-242.5 -73.5q-178 0 -286.5 115.5t-108.5 312.5z" />
<glyph unicode="&#xaa;" horiz-adv-x="709" d="M47 927q0 94 68.5 147t199.5 61l211 14v58q0 72 -44.5 111.5t-124.5 39.5q-70 0 -115.5 -33.5t-55.5 -92.5h-106q5 97 83 158.5t197 61.5q127 0 202.5 -64t75.5 -173v-489h-109v132h-2q-28 -63 -94 -101t-146 -38q-107 0 -173.5 57.5t-66.5 150.5zM160 929q0 -53 43 -86 t113 -33q89 0 149.5 53t60.5 131v74l-196 -13q-170 -14 -170 -126z" />
<glyph unicode="&#xab;" horiz-adv-x="1252" d="M143 563v6l358 414h157l-357 -411v-12l357 -411h-157zM593 563v6l359 414h157l-357 -411v-12l357 -411h-157z" />
<glyph unicode="&#xac;" d="M133 563v114h953v-532h-115v418h-838z" />
<glyph unicode="&#xad;" horiz-adv-x="874" d="M109 510v124h656v-124h-656z" />
<glyph unicode="&#xae;" horiz-adv-x="1132" d="M109 1068q0 188 133 319t324 131t324 -130.5t133 -319.5t-133 -320t-324 -131t-324 131t-133 320zM197 1068q0 -154 107.5 -261.5t261.5 -107.5q155 0 262 107t107 262t-107 262t-262 107q-154 0 -261.5 -107.5t-107.5 -261.5zM394 854v449h202q68 0 111 -38.5t43 -98.5 q0 -53 -28 -87.5t-79 -44.5l129 -180h-94l-115 170h-93v-170h-76zM470 1085h110q42 0 65 20.5t23 57.5q0 74 -87 74h-111v-152z" />
<glyph unicode="&#xaf;" horiz-adv-x="938" d="M160 1315v85h618v-85h-618z" />
<glyph unicode="&#xb0;" horiz-adv-x="729" d="M88 1109q0 115 80.5 196t195.5 81t196 -81t81 -196t-81 -196.5t-196 -81.5t-195.5 81t-80.5 197zM187 1109q0 -72 52.5 -124.5t124.5 -52.5q74 0 126 52t52 125q0 74 -52 125.5t-126 51.5q-72 0 -124.5 -52t-52.5 -125z" />
<glyph unicode="&#xb1;" d="M109 112v114h1001v-114h-1001zM109 671v105h444v309h113v-309h444v-105h-444v-317h-113v317h-444z" />
<glyph unicode="&#xb2;" horiz-adv-x="595" d="M53 1594v3q0 94 67.5 153.5t174.5 59.5q105 0 170.5 -54t65.5 -140q0 -53 -28.5 -101t-101.5 -120l-178 -175v-3h322v-98h-486v84l256 249q54 55 75 88.5t21 67.5q0 47 -34 76.5t-87 29.5q-52 0 -87 -33.5t-35 -83.5v-3h-115z" />
<glyph unicode="&#xb3;" horiz-adv-x="613" d="M47 1309h118q3 -47 40 -76t96 -29t97 31t38 79q0 50 -37 79.5t-101 29.5h-82v88h82q54 0 87 28.5t33 75.5q0 44 -33 72t-87 28q-53 0 -87.5 -29.5t-36.5 -76.5h-114q3 91 69.5 146t173.5 55q103 0 168 -50t65 -129q0 -61 -38 -104t-103 -54v-3q77 -6 122.5 -50.5 t45.5 -113.5q0 -89 -73 -145t-190 -56q-111 0 -180 56.5t-73 147.5z" />
<glyph unicode="&#xb4;" horiz-adv-x="899" d="M258 1251l220 301h153l-256 -301h-117z" />
<glyph unicode="&#xb6;" horiz-adv-x="1186" d="M130 1004q0 193 133.5 316t341.5 123h155v-1638h-136v770h-20q-205 0 -339.5 122t-134.5 307zM919 -195v1638h137v-1638h-137z" />
<glyph unicode="&#xb7;" horiz-adv-x="509" d="M160 602q0 40 27.5 67.5t67.5 27.5q41 0 68 -27.5t27 -67.5t-27.5 -67.5t-67.5 -27.5t-67.5 27.5t-27.5 67.5z" />
<glyph unicode="&#xb8;" horiz-adv-x="899" d="M268 -370q41 -16 122 -16q63 0 100 24.5t37 65.5q0 82 -155 82h-53v60l65 161l87 -7l-54 -141q101 0 154.5 -39.5t53.5 -112.5q0 -76 -61.5 -124.5t-156.5 -49.5q-84 0 -139 17v80z" />
<glyph unicode="&#xb9;" horiz-adv-x="470" d="M64 1566v111l177 120h121v-678h-117v568h-3z" />
<glyph unicode="&#xba;" horiz-adv-x="748" d="M41 1085q0 169 91 268t242 99q152 0 242.5 -99t90.5 -268t-90.5 -268.5t-242.5 -99.5t-242.5 99.5t-90.5 268.5zM157 1085q0 -127 58 -200t159 -73t159.5 73t58.5 200t-58.5 199.5t-159.5 72.5t-159 -72.5t-58 -199.5z" />
<glyph unicode="&#xbb;" horiz-adv-x="1251" d="M143 149l357 411v12l-357 411h157l358 -414v-6l-358 -414h-157zM593 149l357 411v12l-357 411h157l359 -414v-6l-359 -414h-157z" />
<glyph unicode="&#xbc;" horiz-adv-x="1433" d="M71 1212v111l177 120h121v-678h-117v568h-3zM90 0l1065 1443h134l-1063 -1443h-136zM848 130v106q89 158 284 442h174v-449h92v-99h-92v-130h-119v130h-339zM958 226h232v363h-2q-156 -230 -230 -361v-2z" />
<glyph unicode="&#xbd;" horiz-adv-x="1439" d="M71 1212v111l177 120h121v-678h-117v568h-3zM90 0l1065 1443h134l-1063 -1443h-136zM910 475v3q0 94 67.5 153.5t174.5 59.5q105 0 170.5 -54t65.5 -140q0 -53 -28.5 -101t-101.5 -120l-178 -175v-3h322v-98h-486v84l256 249q54 55 75 88.5t21 67.5q0 47 -34 76.5 t-87 29.5q-52 0 -87 -33.5t-35 -83.5v-3h-115z" />
<glyph unicode="&#xbe;" horiz-adv-x="1524" d="M44 955h118q3 -47 40 -76t96 -29t97 31t38 79q0 50 -37 79.5t-101 29.5h-82v88h82q54 0 87 28.5t33 75.5q0 44 -33 72t-87 28q-53 0 -87.5 -29.5t-36.5 -76.5h-114q3 91 69.5 146t173.5 55q103 0 168 -50t65 -129q0 -61 -38 -104t-103 -54v-3q77 -6 122.5 -50.5 t45.5 -113.5q0 -89 -73 -145t-190 -56q-111 0 -180 56.5t-73 147.5zM194 0l1065 1443h134l-1063 -1443h-136zM939 130v106q89 158 284 442h174v-449h92v-99h-92v-130h-119v130h-339zM1049 226h232v363h-2q-156 -230 -230 -361v-2z" />
<glyph unicode="&#xbf;" horiz-adv-x="972" d="M85 0q0 107 52.5 189.5t157.5 151.5q98 63 133 115t35 136v75h133v-94q1 -98 -44.5 -167.5t-152.5 -139.5q-94 -62 -133.5 -121t-39.5 -138q0 -108 76.5 -177.5t197.5 -69.5q120 0 197 70t87 189h130q-9 -165 -120.5 -271.5t-298.5 -106.5q-180 0 -295 102t-115 257z M424 1019q0 40 27.5 67.5t67.5 27.5q41 0 68 -27t27 -68q0 -40 -27.5 -68t-67.5 -28t-67.5 28t-27.5 68z" />
<glyph unicode="&#xc0;" horiz-adv-x="1262" d="M23 0l540 1443h136l539 -1443h-144l-160 442h-606l-160 -442h-145zM287 1846h154l252 -295h-117zM369 560h524l-259 714h-6z" />
<glyph unicode="&#xc1;" horiz-adv-x="1262" d="M23 0l540 1443h136l539 -1443h-144l-160 442h-606l-160 -442h-145zM369 560h524l-259 714h-6zM571 1551l252 295h154l-289 -295h-117z" />
<glyph unicode="&#xc2;" horiz-adv-x="1262" d="M23 0l540 1443h136l539 -1443h-144l-160 442h-606l-160 -442h-145zM293 1551l283 295h110l283 -295h-131l-206 217h-2l-206 -217h-131zM369 560h524l-259 714h-6z" />
<glyph unicode="&#xc3;" horiz-adv-x="1262" d="M23 0l540 1443h136l539 -1443h-144l-160 442h-606l-160 -442h-145zM335 1554q0 109 43.5 171.5t122.5 62.5q46 0 86 -24.5t64 -54t54 -54t57 -24.5q73 0 73 144h91q0 -107 -43.5 -170.5t-120.5 -63.5q-36 0 -67.5 16t-54.5 39.5t-44 46.5t-44.5 39t-47.5 16 q-38 0 -58 -38t-20 -106h-91zM369 560h524l-259 714h-6z" />
<glyph unicode="&#xc4;" horiz-adv-x="1262" d="M23 0l540 1443h136l539 -1443h-144l-160 442h-606l-160 -442h-145zM360 1668q0 38 27.5 65.5t65.5 27.5t65.5 -27.5t27.5 -65.5t-27.5 -65t-65.5 -27t-65.5 27.5t-27.5 64.5zM369 560h524l-259 714h-6zM716 1668q0 38 27.5 65.5t65.5 27.5t65.5 -27.5t27.5 -65.5 t-27.5 -65t-65.5 -27t-65.5 27t-27.5 65z" />
<glyph unicode="&#xc5;" horiz-adv-x="1262" d="M23 0l540 1443h136l539 -1443h-144l-160 442h-606l-160 -442h-145zM369 560h524l-259 714h-6zM443 1695q0 77 55.5 132t132.5 55t132.5 -55t55.5 -132t-55.5 -132.5t-132.5 -55.5t-132.5 55.5t-55.5 132.5zM512 1695q0 -50 34.5 -85t84.5 -35t84.5 35t34.5 85 q0 49 -35 84t-84 35t-84 -35t-35 -84z" />
<glyph unicode="&#xc6;" horiz-adv-x="1941" d="M23 0l702 1443h1091v-124h-702v-526h665v-122h-665v-547h702v-124h-838v443h-600l-214 -443h-141zM434 561h544v766h-170z" />
<glyph unicode="&#xc7;" horiz-adv-x="1371" d="M77 725q0 339 174.5 540t468.5 201q151 0 277.5 -61t207.5 -171t100 -249h-137q-30 156 -155 255t-293 99q-230 0 -366.5 -166.5t-136.5 -447.5q0 -285 136.5 -453t367.5 -168q173 0 294 87t153 236h137q-37 -200 -180 -318.5t-360 -130.5l-46 -119q101 0 154.5 -39.5 t53.5 -112.5q0 -76 -61.5 -124.5t-156.5 -49.5q-84 0 -139 17v80q41 -16 122 -16q63 0 100 24.5t37 65.5q0 82 -155 82h-53v60l53 132q-275 17 -436 217.5t-161 529.5z" />
<glyph unicode="&#xc8;" horiz-adv-x="1104" d="M135 0v1443h871v-124h-735v-519h698v-122h-698v-554h735v-124h-871zM226 1846h154l252 -295h-117z" />
<glyph unicode="&#xc9;" horiz-adv-x="1104" d="M135 0v1443h871v-124h-735v-519h698v-122h-698v-554h735v-124h-871zM510 1551l252 295h154l-289 -295h-117z" />
<glyph unicode="&#xca;" horiz-adv-x="1104" d="M135 0v1443h871v-124h-735v-519h698v-122h-698v-554h735v-124h-871zM232 1551l283 295h110l283 -295h-131l-206 217h-2l-206 -217h-131z" />
<glyph unicode="&#xcb;" horiz-adv-x="1104" d="M135 0v1443h871v-124h-735v-519h698v-122h-698v-554h735v-124h-871zM299 1668q0 38 27.5 65.5t65.5 27.5t65.5 -27.5t27.5 -65.5t-27.5 -65t-65.5 -27t-65.5 27.5t-27.5 64.5zM655 1668q0 38 27.5 65.5t65.5 27.5t65.5 -27.5t27.5 -65.5t-27.5 -65t-65.5 -27t-65.5 27 t-27.5 65z" />
<glyph unicode="&#xcc;" horiz-adv-x="406" d="M-141 1846h154l252 -295h-117zM135 0v1443h136v-1443h-136z" />
<glyph unicode="&#xcd;" horiz-adv-x="406" d="M135 0v1443h136v-1443h-136zM143 1551l252 295h154l-289 -295h-117z" />
<glyph unicode="&#xce;" horiz-adv-x="406" d="M-135 1551l283 295h110l283 -295h-131l-206 217h-2l-206 -217h-131zM135 0v1443h136v-1443h-136z" />
<glyph unicode="&#xcf;" horiz-adv-x="406" d="M-68 1668q0 38 27.5 65.5t65.5 27.5t65.5 -27.5t27.5 -65.5t-27.5 -65t-65.5 -27t-65.5 27.5t-27.5 64.5zM135 0v1443h136v-1443h-136zM288 1668q0 38 27.5 65.5t65.5 27.5t65.5 -27.5t27.5 -65.5t-27.5 -65t-65.5 -27t-65.5 27t-27.5 65z" />
<glyph unicode="&#xd0;" horiz-adv-x="1385" d="M24 681v124h126v638h475q324 0 504 -189.5t180 -531.5q0 -343 -179.5 -532.5t-504.5 -189.5h-475v681h-126zM287 124h330q266 0 409.5 155t143.5 442q0 288 -143.5 443t-409.5 155h-330v-514h312v-124h-312v-557z" />
<glyph unicode="&#xd1;" horiz-adv-x="1393" d="M135 0v1443h135l846 -1205h7v1205h135v-1443h-132l-849 1206h-7v-1206h-135zM400 1554q0 109 43.5 171.5t122.5 62.5q46 0 86 -24.5t64 -54t54 -54t57 -24.5q73 0 73 144h91q0 -107 -43.5 -170.5t-120.5 -63.5q-36 0 -67.5 16t-54.5 39.5t-44 46.5t-44.5 39t-47.5 16 q-38 0 -58 -38t-20 -106h-91z" />
<glyph unicode="&#xd2;" horiz-adv-x="1465" d="M77 721q0 343 177 544t478 201q302 0 479 -201t177 -544t-177 -543.5t-479 -200.5t-478.5 200.5t-176.5 543.5zM217 721q0 -284 139 -450.5t376 -166.5t376.5 167t139.5 450q0 284 -139.5 451t-376.5 167t-376 -167t-139 -451zM388 1846h154l252 -295h-117z" />
<glyph unicode="&#xd3;" horiz-adv-x="1465" d="M77 721q0 343 177 544t478 201q302 0 479 -201t177 -544t-177 -543.5t-479 -200.5t-478.5 200.5t-176.5 543.5zM217 721q0 -284 139 -450.5t376 -166.5t376.5 167t139.5 450q0 284 -139.5 451t-376.5 167t-376 -167t-139 -451zM672 1551l252 295h154l-289 -295h-117z" />
<glyph unicode="&#xd4;" horiz-adv-x="1465" d="M77 721q0 343 177 544t478 201q302 0 479 -201t177 -544t-177 -543.5t-479 -200.5t-478.5 200.5t-176.5 543.5zM217 721q0 -284 139 -450.5t376 -166.5t376.5 167t139.5 450q0 284 -139.5 451t-376.5 167t-376 -167t-139 -451zM394 1551l283 295h110l283 -295h-131 l-206 217h-2l-206 -217h-131z" />
<glyph unicode="&#xd5;" horiz-adv-x="1465" d="M77 721q0 343 177 544t478 201q302 0 479 -201t177 -544t-177 -543.5t-479 -200.5t-478.5 200.5t-176.5 543.5zM217 721q0 -284 139 -450.5t376 -166.5t376.5 167t139.5 450q0 284 -139.5 451t-376.5 167t-376 -167t-139 -451zM436 1554q0 109 43.5 171.5t122.5 62.5 q46 0 86 -24.5t64 -54t54 -54t57 -24.5q73 0 73 144h91q0 -107 -43.5 -170.5t-120.5 -63.5q-36 0 -67.5 16t-54.5 39.5t-44 46.5t-44.5 39t-47.5 16q-38 0 -58 -38t-20 -106h-91z" />
<glyph unicode="&#xd6;" horiz-adv-x="1465" d="M77 721q0 343 177 544t478 201q302 0 479 -201t177 -544t-177 -543.5t-479 -200.5t-478.5 200.5t-176.5 543.5zM217 721q0 -284 139 -450.5t376 -166.5t376.5 167t139.5 450q0 284 -139.5 451t-376.5 167t-376 -167t-139 -451zM461 1668q0 38 27.5 65.5t65.5 27.5 t65.5 -27.5t27.5 -65.5t-27.5 -65t-65.5 -27t-65.5 27.5t-27.5 64.5zM817 1668q0 38 27.5 65.5t65.5 27.5t65.5 -27.5t27.5 -65.5t-27.5 -65t-65.5 -27t-65.5 27t-27.5 65z" />
<glyph unicode="&#xd7;" d="M215 265l314 315l-314 314l81 81l314 -314l313 313l81 -80l-313 -314l313 -314l-81 -81l-313 314l-314 -314z" />
<glyph unicode="&#xd8;" horiz-adv-x="1465" d="M77 721q0 343 177 544t478 201q255 0 424 -147l130 167l77 -54l-140 -182q165 -199 165 -529q0 -343 -177 -543.5t-479 -200.5q-233 0 -396 124l-126 -164l-79 59l132 171q-186 202 -186 554zM217 721q0 -278 133 -443l723 933q-136 128 -341 128q-237 0 -376 -167 t-139 -451zM419 208q129 -104 313 -104q237 0 376.5 167t139.5 450q0 253 -113 416z" />
<glyph unicode="&#xd9;" horiz-adv-x="1386" d="M135 504v939h136v-931q0 -184 113 -296t309 -112t309 112t113 296v931h137v-939q0 -236 -151 -381.5t-408 -145.5t-407.5 145.5t-150.5 381.5zM349 1846h154l252 -295h-117z" />
<glyph unicode="&#xda;" horiz-adv-x="1386" d="M135 504v939h136v-931q0 -184 113 -296t309 -112t309 112t113 296v931h137v-939q0 -236 -151 -381.5t-408 -145.5t-407.5 145.5t-150.5 381.5zM633 1551l252 295h154l-289 -295h-117z" />
<glyph unicode="&#xdb;" horiz-adv-x="1386" d="M135 504v939h136v-931q0 -184 113 -296t309 -112t309 112t113 296v931h137v-939q0 -236 -151 -381.5t-408 -145.5t-407.5 145.5t-150.5 381.5zM355 1551l283 295h110l283 -295h-131l-206 217h-2l-206 -217h-131z" />
<glyph unicode="&#xdc;" horiz-adv-x="1386" d="M135 504v939h136v-931q0 -184 113 -296t309 -112t309 112t113 296v931h137v-939q0 -236 -151 -381.5t-408 -145.5t-407.5 145.5t-150.5 381.5zM422 1668q0 38 27.5 65.5t65.5 27.5t65.5 -27.5t27.5 -65.5t-27.5 -65t-65.5 -27t-65.5 27.5t-27.5 64.5zM778 1668 q0 38 27.5 65.5t65.5 27.5t65.5 -27.5t27.5 -65.5t-27.5 -65t-65.5 -27t-65.5 27t-27.5 65z" />
<glyph unicode="&#xdd;" d="M24 1443h156l427 -685h5l427 685h156l-517 -819v-624h-137v624zM549 1551l252 295h154l-289 -295h-117z" />
<glyph unicode="&#xde;" horiz-adv-x="1222" d="M161 0v1443h137v-274h386q184 0 307.5 -111t123.5 -299q0 -126 -58.5 -220.5t-156 -142.5t-217.5 -48h-385v-348h-137zM298 470h352q149 0 237 75.5t88 213.5q0 137 -88 212t-237 75h-352v-576z" />
<glyph unicode="&#xdf;" horiz-adv-x="1174" d="M161 0v1089q0 178 108.5 282.5t293.5 104.5q178 0 290 -100.5t112 -260.5q0 -126 -67 -220t-175 -124v-4q163 -20 258.5 -118.5t95.5 -251.5q0 -183 -125.5 -298t-325.5 -115q-86 0 -156 14v119q62 -16 147 -16q145 0 237 82.5t92 214.5q0 137 -101 217t-273 80h-77v129 h70q121 0 196 79t75 206q0 111 -75 180.5t-195 69.5q-129 0 -201.5 -74.5t-72.5 -207.5v-1077h-131z" />
<glyph unicode="&#xe0;" horiz-adv-x="1048" d="M76 300q0 138 101 216.5t295 92.5l331 22v92q0 118 -71.5 183t-201.5 65q-113 0 -187 -54.5t-92 -150.5h-127q8 142 122.5 232.5t284.5 90.5q185 0 294.5 -96t109.5 -259v-734h-126v206h-3q-44 -98 -144.5 -158t-224.5 -60q-161 0 -261 86.5t-100 225.5zM211 299 q0 -87 70 -141t182 -54q145 0 242.5 86.5t97.5 214.5v119l-315 -22q-136 -9 -206.5 -60.5t-70.5 -142.5zM215 1552h153l220 -301h-117z" />
<glyph unicode="&#xe1;" horiz-adv-x="1048" d="M76 300q0 138 101 216.5t295 92.5l331 22v92q0 118 -71.5 183t-201.5 65q-113 0 -187 -54.5t-92 -150.5h-127q8 142 122.5 232.5t284.5 90.5q185 0 294.5 -96t109.5 -259v-734h-126v206h-3q-44 -98 -144.5 -158t-224.5 -60q-161 0 -261 86.5t-100 225.5zM211 299 q0 -87 70 -141t182 -54q145 0 242.5 86.5t97.5 214.5v119l-315 -22q-136 -9 -206.5 -60.5t-70.5 -142.5zM462 1251l220 301h153l-256 -301h-117z" />
<glyph unicode="&#xe2;" horiz-adv-x="1048" d="M76 300q0 138 101 216.5t295 92.5l331 22v92q0 118 -71.5 183t-201.5 65q-113 0 -187 -54.5t-92 -150.5h-127q8 142 122.5 232.5t284.5 90.5q185 0 294.5 -96t109.5 -259v-734h-126v206h-3q-44 -98 -144.5 -158t-224.5 -60q-161 0 -261 86.5t-100 225.5zM206 1251 l273 301h97l273 -301h-127l-192 220h-5l-192 -220h-127zM211 299q0 -87 70 -141t182 -54q145 0 242.5 86.5t97.5 214.5v119l-315 -22q-136 -9 -206.5 -60.5t-70.5 -142.5z" />
<glyph unicode="&#xe3;" horiz-adv-x="1048" d="M76 300q0 138 101 216.5t295 92.5l331 22v92q0 118 -71.5 183t-201.5 65q-113 0 -187 -54.5t-92 -150.5h-127q8 142 122.5 232.5t284.5 90.5q185 0 294.5 -96t109.5 -259v-734h-126v206h-3q-44 -98 -144.5 -158t-224.5 -60q-161 0 -261 86.5t-100 225.5zM211 299 q0 -87 70 -141t182 -54q145 0 242.5 86.5t97.5 214.5v119l-315 -22q-136 -9 -206.5 -60.5t-70.5 -142.5zM235 1270q0 109 43.5 171.5t122.5 62.5q46 0 86 -24.5t64 -54t54 -54t57 -24.5q73 0 73 144h91q0 -107 -43.5 -170.5t-120.5 -63.5q-36 0 -67.5 16t-54.5 39.5 t-44 46.5t-44.5 39t-47.5 16q-38 0 -58 -38t-20 -106h-91z" />
<glyph unicode="&#xe4;" horiz-adv-x="1048" d="M76 300q0 138 101 216.5t295 92.5l331 22v92q0 118 -71.5 183t-201.5 65q-113 0 -187 -54.5t-92 -150.5h-127q8 142 122.5 232.5t284.5 90.5q185 0 294.5 -96t109.5 -259v-734h-126v206h-3q-44 -98 -144.5 -158t-224.5 -60q-161 0 -261 86.5t-100 225.5zM211 299 q0 -87 70 -141t182 -54q145 0 242.5 86.5t97.5 214.5v119l-315 -22q-136 -9 -206.5 -60.5t-70.5 -142.5zM257 1351q0 38 27.5 65.5t65.5 27.5t65.5 -27.5t27.5 -65.5t-27.5 -65t-65.5 -27t-65.5 27.5t-27.5 64.5zM613 1351q0 38 27.5 65.5t65.5 27.5t65.5 -27.5t27.5 -65.5 t-27.5 -65t-65.5 -27t-65.5 27t-27.5 65z" />
<glyph unicode="&#xe5;" horiz-adv-x="1048" d="M76 300q0 138 101 216.5t295 92.5l331 22v92q0 118 -71.5 183t-201.5 65q-113 0 -187 -54.5t-92 -150.5h-127q8 142 122.5 232.5t284.5 90.5q185 0 294.5 -96t109.5 -259v-734h-126v206h-3q-44 -98 -144.5 -158t-224.5 -60q-161 0 -261 86.5t-100 225.5zM211 299 q0 -87 70 -141t182 -54q145 0 242.5 86.5t97.5 214.5v119l-315 -22q-136 -9 -206.5 -60.5t-70.5 -142.5zM341 1394q0 77 55 132.5t132 55.5t132.5 -55.5t55.5 -132.5t-55.5 -132.5t-132.5 -55.5t-132 55.5t-55 132.5zM409 1394q0 -50 35 -85t84 -35q50 0 85 35t35 85t-35 85 t-85 35q-49 0 -84 -35t-35 -85z" />
<glyph unicode="&#xe6;" horiz-adv-x="1795" d="M76 296q0 136 101.5 214.5t291.5 88.5l333 19v98q0 116 -76 185.5t-202 69.5q-119 0 -193.5 -55t-85.5 -150h-130q12 144 123 233.5t282 89.5q142 0 242.5 -65t128.5 -179h8q51 115 150.5 179.5t235.5 64.5q205 0 325 -141t120 -381v-58h-795v-10q0 -179 96 -286.5 t256 -107.5q116 0 194.5 54t102.5 146h132q-25 -141 -143 -229t-288 -88q-142 0 -247 66.5t-157 191.5h-8q-57 -124 -165.5 -191t-252.5 -67q-172 0 -275.5 84t-103.5 224zM211 298q0 -87 68 -140.5t179 -53.5q145 0 244.5 88t99.5 215v104l-318 -19q-133 -8 -203 -57.5 t-70 -136.5zM935 616h658q-2 163 -88 259.5t-229 96.5q-146 0 -239 -97.5t-102 -258.5z" />
<glyph unicode="&#xe7;" horiz-adv-x="1046" d="M65 539q0 250 132.5 400t351.5 150q182 0 302.5 -101t140.5 -250h-131q-20 103 -103 168t-208 65q-158 0 -254 -118t-96 -314q0 -199 96 -315.5t255 -116.5q124 0 206 59.5t105 165.5h131q-22 -143 -128 -236t-265 -106l-50 -131q101 0 154.5 -39.5t53.5 -112.5 q0 -76 -61.5 -124.5t-156.5 -49.5q-84 0 -139 17v80q41 -16 122 -16q63 0 100 24.5t37 65.5q0 82 -155 82h-53v60l58 143q-204 14 -324.5 161.5t-120.5 388.5z" />
<glyph unicode="&#xe8;" horiz-adv-x="1075" d="M65 536q0 251 131.5 402t348.5 151q212 0 338.5 -142.5t126.5 -382.5v-58h-808v-7q0 -182 96.5 -288t257.5 -106q119 0 202 55t107 145h131q-24 -139 -146.5 -228t-296.5 -89q-224 0 -356 147.5t-132 400.5zM202 614h670q-2 161 -92.5 259.5t-236.5 98.5 q-145 0 -238.5 -98.5t-102.5 -259.5zM232 1552h153l220 -301h-117z" />
<glyph unicode="&#xe9;" horiz-adv-x="1075" d="M65 536q0 251 131.5 402t348.5 151q212 0 338.5 -142.5t126.5 -382.5v-58h-808v-7q0 -182 96.5 -288t257.5 -106q119 0 202 55t107 145h131q-24 -139 -146.5 -228t-296.5 -89q-224 0 -356 147.5t-132 400.5zM202 614h670q-2 161 -92.5 259.5t-236.5 98.5 q-145 0 -238.5 -98.5t-102.5 -259.5zM479 1251l220 301h153l-256 -301h-117z" />
<glyph unicode="&#xea;" horiz-adv-x="1075" d="M65 536q0 251 131.5 402t348.5 151q212 0 338.5 -142.5t126.5 -382.5v-58h-808v-7q0 -182 96.5 -288t257.5 -106q119 0 202 55t107 145h131q-24 -139 -146.5 -228t-296.5 -89q-224 0 -356 147.5t-132 400.5zM202 614h670q-2 161 -92.5 259.5t-236.5 98.5 q-145 0 -238.5 -98.5t-102.5 -259.5zM223 1251l273 301h97l273 -301h-127l-192 220h-5l-192 -220h-127z" />
<glyph unicode="&#xeb;" horiz-adv-x="1075" d="M65 536q0 251 131.5 402t348.5 151q212 0 338.5 -142.5t126.5 -382.5v-58h-808v-7q0 -182 96.5 -288t257.5 -106q119 0 202 55t107 145h131q-24 -139 -146.5 -228t-296.5 -89q-224 0 -356 147.5t-132 400.5zM202 614h670q-2 161 -92.5 259.5t-236.5 98.5 q-145 0 -238.5 -98.5t-102.5 -259.5zM274 1351q0 38 27.5 65.5t65.5 27.5t65.5 -27.5t27.5 -65.5t-27.5 -65t-65.5 -27t-65.5 27.5t-27.5 64.5zM630 1351q0 38 27.5 65.5t65.5 27.5t65.5 -27.5t27.5 -65.5t-27.5 -65t-65.5 -27t-65.5 27t-27.5 65z" />
<glyph unicode="&#xec;" horiz-adv-x="390" d="M-118 1552h153l220 -301h-117zM129 0v1077h132v-1077h-132z" />
<glyph unicode="&#xed;" horiz-adv-x="390" d="M129 0v1077h132v-1077h-132zM129 1251l220 301h153l-256 -301h-117z" />
<glyph unicode="&#xee;" horiz-adv-x="390" d="M-127 1251l273 301h97l273 -301h-127l-192 220h-5l-192 -220h-127zM129 0v1077h132v-1077h-132z" />
<glyph unicode="&#xef;" horiz-adv-x="390" d="M-76 1351q0 38 27.5 65.5t65.5 27.5t65.5 -27.5t27.5 -65.5t-27.5 -65t-65.5 -27t-65.5 27.5t-27.5 64.5zM129 0v1077h132v-1077h-132zM280 1351q0 38 27.5 65.5t65.5 27.5t65.5 -27.5t27.5 -65.5t-27.5 -65t-65.5 -27t-65.5 27t-27.5 65z" />
<glyph unicode="&#xf0;" horiz-adv-x="1131" d="M78 525q0 238 129.5 384t339.5 146q105 0 197.5 -53.5t134.5 -139.5h11q-24 105 -78.5 210.5t-121.5 182.5l-282 -102l-29 88l246 89q-72 77 -214 180h164q95 -66 166 -141l257 92l29 -88l-221 -78q233 -297 233 -729q0 -269 -128 -426.5t-347 -157.5q-222 0 -354 147.5 t-132 395.5zM213 525q0 -191 96.5 -307.5t254.5 -116.5q157 0 252.5 115t95.5 305q0 189 -95.5 302.5t-254.5 113.5q-156 0 -252.5 -114t-96.5 -298z" />
<glyph unicode="&#xf1;" horiz-adv-x="1097" d="M119 0v1077h124v-201h4q46 102 136 157.5t219 55.5q177 0 279.5 -106.5t102.5 -289.5v-693h-132v672q0 143 -75 221t-212 78q-143 0 -228.5 -93t-85.5 -245v-633h-132zM259 1270q0 109 43.5 171.5t122.5 62.5q46 0 86 -24.5t64 -54t54 -54t57 -24.5q73 0 73 144h91 q0 -107 -43.5 -170.5t-120.5 -63.5q-36 0 -67.5 16t-54.5 39.5t-44 46.5t-44.5 39t-47.5 16q-38 0 -58 -38t-20 -106h-91z" />
<glyph unicode="&#xf2;" horiz-adv-x="1109" d="M65 539q0 251 133.5 400.5t355.5 149.5q223 0 356.5 -149.5t133.5 -400.5t-133.5 -401t-356.5 -150q-222 0 -355.5 149.5t-133.5 401.5zM200 539q0 -201 95 -316.5t259 -115.5q165 0 260 115.5t95 316.5t-95 316.5t-260 115.5q-164 0 -259 -115.5t-95 -316.5zM241 1552 h153l220 -301h-117z" />
<glyph unicode="&#xf3;" horiz-adv-x="1109" d="M65 539q0 251 133.5 400.5t355.5 149.5q223 0 356.5 -149.5t133.5 -400.5t-133.5 -401t-356.5 -150q-222 0 -355.5 149.5t-133.5 401.5zM200 539q0 -201 95 -316.5t259 -115.5q165 0 260 115.5t95 316.5t-95 316.5t-260 115.5q-164 0 -259 -115.5t-95 -316.5zM488 1251 l220 301h153l-256 -301h-117z" />
<glyph unicode="&#xf4;" horiz-adv-x="1109" d="M65 539q0 251 133.5 400.5t355.5 149.5q223 0 356.5 -149.5t133.5 -400.5t-133.5 -401t-356.5 -150q-222 0 -355.5 149.5t-133.5 401.5zM200 539q0 -201 95 -316.5t259 -115.5q165 0 260 115.5t95 316.5t-95 316.5t-260 115.5q-164 0 -259 -115.5t-95 -316.5zM232 1251 l273 301h97l273 -301h-127l-192 220h-5l-192 -220h-127z" />
<glyph unicode="&#xf5;" horiz-adv-x="1109" d="M65 539q0 251 133.5 400.5t355.5 149.5q223 0 356.5 -149.5t133.5 -400.5t-133.5 -401t-356.5 -150q-222 0 -355.5 149.5t-133.5 401.5zM200 539q0 -201 95 -316.5t259 -115.5q165 0 260 115.5t95 316.5t-95 316.5t-260 115.5q-164 0 -259 -115.5t-95 -316.5zM261 1270 q0 109 43.5 171.5t122.5 62.5q46 0 86 -24.5t64 -54t54 -54t57 -24.5q73 0 73 144h91q0 -107 -43.5 -170.5t-120.5 -63.5q-36 0 -67.5 16t-54.5 39.5t-44 46.5t-44.5 39t-47.5 16q-38 0 -58 -38t-20 -106h-91z" />
<glyph unicode="&#xf6;" horiz-adv-x="1109" d="M65 539q0 251 133.5 400.5t355.5 149.5q223 0 356.5 -149.5t133.5 -400.5t-133.5 -401t-356.5 -150q-222 0 -355.5 149.5t-133.5 401.5zM200 539q0 -201 95 -316.5t259 -115.5q165 0 260 115.5t95 316.5t-95 316.5t-260 115.5q-164 0 -259 -115.5t-95 -316.5zM283 1351 q0 38 27.5 65.5t65.5 27.5t65.5 -27.5t27.5 -65.5t-27.5 -65t-65.5 -27t-65.5 27.5t-27.5 64.5zM639 1351q0 38 27.5 65.5t65.5 27.5t65.5 -27.5t27.5 -65.5t-27.5 -65t-65.5 -27t-65.5 27t-27.5 65z" />
<glyph unicode="&#xf7;" d="M109 516v113h1001v-113h-1001zM503 216q0 46 30.5 76.5t76.5 30.5q45 0 76 -30.5t31 -76.5t-31 -76.5t-76 -30.5q-46 0 -76.5 30.5t-30.5 76.5zM503 922q0 46 30.5 76t76.5 30q45 0 76 -30.5t31 -75.5q0 -46 -31 -76.5t-76 -30.5q-46 0 -76.5 30.5t-30.5 76.5z" />
<glyph unicode="&#xf8;" horiz-adv-x="1109" d="M65 539q0 251 133.5 400.5t355.5 149.5q162 0 278 -81l81 116l79 -51l-88 -127q140 -149 140 -407q0 -251 -133.5 -401t-356.5 -150q-152 0 -264 72l-81 -117l-82 55l86 124q-148 151 -148 417zM200 539q0 -193 89 -309l472 676q-87 65 -207 65q-164 0 -259 -115.5 t-95 -316.5zM361 162q81 -55 193 -55q165 0 260 115.5t95 316.5q0 183 -81 298z" />
<glyph unicode="&#xf9;" horiz-adv-x="1097" d="M113 383v694h132v-672q0 -144 74 -221t211 -77q142 0 229 92.5t87 244.5v633h133v-1077h-125v202h-3q-45 -100 -138.5 -157t-219.5 -57q-176 0 -278 106.5t-102 288.5zM233 1552h153l220 -301h-117z" />
<glyph unicode="&#xfa;" horiz-adv-x="1097" d="M113 383v694h132v-672q0 -144 74 -221t211 -77q142 0 229 92.5t87 244.5v633h133v-1077h-125v202h-3q-45 -100 -138.5 -157t-219.5 -57q-176 0 -278 106.5t-102 288.5zM480 1251l220 301h153l-256 -301h-117z" />
<glyph unicode="&#xfb;" horiz-adv-x="1097" d="M113 383v694h132v-672q0 -144 74 -221t211 -77q142 0 229 92.5t87 244.5v633h133v-1077h-125v202h-3q-45 -100 -138.5 -157t-219.5 -57q-176 0 -278 106.5t-102 288.5zM224 1251l273 301h97l273 -301h-127l-192 220h-5l-192 -220h-127z" />
<glyph unicode="&#xfc;" horiz-adv-x="1097" d="M113 383v694h132v-672q0 -144 74 -221t211 -77q142 0 229 92.5t87 244.5v633h133v-1077h-125v202h-3q-45 -100 -138.5 -157t-219.5 -57q-176 0 -278 106.5t-102 288.5zM275 1351q0 38 27.5 65.5t65.5 27.5t65.5 -27.5t27.5 -65.5t-27.5 -65t-65.5 -27t-65.5 27.5 t-27.5 64.5zM631 1351q0 38 27.5 65.5t65.5 27.5t65.5 -27.5t27.5 -65.5t-27.5 -65t-65.5 -27t-65.5 27t-27.5 65z" />
<glyph unicode="&#xfd;" horiz-adv-x="980" d="M17 1077h142l330 -943h3l331 943h140l-423 -1136q-70 -189 -141 -255.5t-202 -66.5q-29 0 -66 7v114q28 -7 64 -7q74 0 118.5 41.5t82.5 145.5l26 73zM425 1251l220 301h153l-256 -301h-117z" />
<glyph unicode="&#xfe;" horiz-adv-x="1153" d="M129 -371v1867h125v-639h12q50 111 148 174.5t220 63.5q205 0 329.5 -152.5t124.5 -403.5t-124.5 -404t-329.5 -153q-125 0 -222 59.5t-141 163.5h-11v-576h-131zM256 539q0 -198 96 -318t254 -120q160 0 253 118t93 319q0 202 -93 320.5t-252 118.5t-255 -120t-96 -318z " />
<glyph unicode="&#xff;" horiz-adv-x="980" d="M17 1077h142l330 -943h3l331 943h140l-423 -1136q-70 -189 -141 -255.5t-202 -66.5q-29 0 -66 7v114q28 -7 64 -7q74 0 118.5 41.5t82.5 145.5l26 73zM220 1351q0 38 27.5 65.5t65.5 27.5t65.5 -27.5t27.5 -65.5t-27.5 -65t-65.5 -27t-65.5 27.5t-27.5 64.5zM576 1351 q0 38 27.5 65.5t65.5 27.5t65.5 -27.5t27.5 -65.5t-27.5 -65t-65.5 -27t-65.5 27t-27.5 65z" />
<glyph unicode="&#x152;" horiz-adv-x="2200" d="M77 721q0 344 178.5 544.5t483.5 200.5q180 0 316 -80.5t207 -229.5v287h849v-124h-712v-519h674v-122h-674v-554h712v-124h-849v290q-71 -149 -208 -231t-315 -82q-305 0 -483.5 200.5t-178.5 543.5zM217 721q0 -283 141 -450t381 -167q239 0 380 167t141 450 t-141 450.5t-380 167.5q-240 0 -381 -167t-141 -451z" />
<glyph unicode="&#x153;" horiz-adv-x="1919" d="M65 537q0 252 133 401.5t356 149.5q149 0 255 -70t162 -202h7q48 125 158.5 199t252.5 74q213 0 339 -142t126 -383v-58h-808v-8q0 -177 97 -285t257 -108q119 0 202 55t107 145h132q-24 -139 -147 -228t-296 -89q-146 0 -259 73.5t-161 196.5h-7q-54 -131 -160.5 -201 t-256.5 -70q-223 0 -356 149t-133 401zM200 537q0 -201 95 -316t259 -115q165 0 260 115t95 316q0 202 -95 317.5t-260 115.5q-164 0 -259 -116t-95 -317zM1046 613h671q-2 161 -93.5 260t-236.5 99q-144 0 -238 -99t-103 -260z" />
<glyph unicode="&#x178;" d="M24 1443h156l427 -685h5l427 685h156l-517 -819v-624h-137v624zM338 1668q0 38 27.5 65.5t65.5 27.5t65.5 -27.5t27.5 -65.5t-27.5 -65t-65.5 -27t-65.5 27.5t-27.5 64.5zM694 1668q0 38 27.5 65.5t65.5 27.5t65.5 -27.5t27.5 -65.5t-27.5 -65t-65.5 -27t-65.5 27 t-27.5 65z" />
<glyph unicode="&#x2c6;" horiz-adv-x="899" d="M128 1251l273 301h97l273 -301h-127l-192 220h-5l-192 -220h-127z" />
<glyph unicode="&#x2dc;" horiz-adv-x="899" d="M154 1270q0 109 43.5 171.5t122.5 62.5q46 0 86 -24.5t64 -54t54 -54t57 -24.5q73 0 73 144h91q0 -107 -43.5 -170.5t-120.5 -63.5q-36 0 -67.5 16t-54.5 39.5t-44 46.5t-44.5 39t-47.5 16q-38 0 -58 -38t-20 -106h-91z" />
<glyph unicode="&#x2000;" horiz-adv-x="941" />
<glyph unicode="&#x2001;" horiz-adv-x="1882" />
<glyph unicode="&#x2002;" horiz-adv-x="941" />
<glyph unicode="&#x2003;" horiz-adv-x="1882" />
<glyph unicode="&#x2004;" horiz-adv-x="627" />
<glyph unicode="&#x2005;" horiz-adv-x="470" />
<glyph unicode="&#x2006;" horiz-adv-x="313" />
<glyph unicode="&#x2007;" horiz-adv-x="313" />
<glyph unicode="&#x2008;" horiz-adv-x="235" />
<glyph unicode="&#x2009;" horiz-adv-x="376" />
<glyph unicode="&#x200a;" horiz-adv-x="104" />
<glyph unicode="&#x2010;" horiz-adv-x="874" d="M109 510v124h656v-124h-656z" />
<glyph unicode="&#x2011;" horiz-adv-x="874" d="M109 510v124h656v-124h-656z" />
<glyph unicode="&#x2012;" horiz-adv-x="874" d="M109 510v124h656v-124h-656z" />
<glyph unicode="&#x2013;" horiz-adv-x="1024" d="M0 524v123h1024v-123h-1024z" />
<glyph unicode="&#x2014;" horiz-adv-x="2048" d="M0 524v123h2048v-123h-2048z" />
<glyph unicode="&#x2018;" horiz-adv-x="480" d="M109 955l143 488h119l-129 -488h-133z" />
<glyph unicode="&#x2019;" horiz-adv-x="480" d="M135 955l128 488h134l-143 -488h-119z" />
<glyph unicode="&#x201a;" horiz-adv-x="487" d="M90 -376l128 488h133l-142 -488h-119z" />
<glyph unicode="&#x201c;" horiz-adv-x="810" d="M109 955l136 488h120l-123 -488h-133zM445 955l136 488h120l-123 -488h-133z" />
<glyph unicode="&#x201d;" horiz-adv-x="810" d="M135 955l122 488h133l-136 -488h-119zM471 955l122 488h133l-136 -488h-119z" />
<glyph unicode="&#x201e;" horiz-adv-x="816" d="M90 -376l122 488h133l-136 -488h-119zM426 -376l122 488h133l-136 -488h-119z" />
<glyph unicode="&#x2022;" horiz-adv-x="973" d="M222 603q0 109 78 186.5t187 77.5t186.5 -77.5t77.5 -186.5t-77.5 -187t-186.5 -78t-187 78t-78 187z" />
<glyph unicode="&#x2026;" horiz-adv-x="1490" d="M160 85q0 40 27.5 67.5t67.5 27.5q41 0 68 -27t27 -68q0 -40 -27.5 -67.5t-67.5 -27.5t-67.5 27.5t-27.5 67.5zM652 85q0 41 27 68t68 27q40 0 67.5 -27.5t27.5 -67.5t-27.5 -67.5t-67.5 -27.5t-67.5 27.5t-27.5 67.5zM1141 85q0 40 27.5 67.5t67.5 27.5t67.5 -27 t27.5 -68q0 -40 -27.5 -67.5t-67.5 -27.5t-67.5 27.5t-27.5 67.5z" />
<glyph unicode="&#x202f;" horiz-adv-x="376" />
<glyph unicode="&#x2039;" horiz-adv-x="801" d="M143 563v6l358 414h157l-357 -411v-12l357 -411h-157z" />
<glyph unicode="&#x203a;" horiz-adv-x="801" d="M143 149l357 411v12l-357 411h157l358 -414v-6l-358 -414h-157z" />
<glyph unicode="&#x205f;" horiz-adv-x="470" />
<glyph unicode="&#x20ac;" d="M50 515v106h214q-5 53 -5 100t5 100h-214v105h230q37 174 139.5 298t243 183t308.5 59q116 0 180 -19v-124q-68 16 -180 16q-202 0 -348.5 -107t-197.5 -306h560v-105h-580q-5 -53 -5 -100t5 -100h580v-106h-560q51 -199 198 -305.5t348 -106.5q125 0 180 16v-124 q-61 -18 -180 -18q-125 0 -236.5 34.5t-203 100.5t-157 169t-94.5 234h-230z" />
<glyph unicode="&#x2122;" horiz-adv-x="1502" d="M20 1352v91h569v-91h-233v-626h-103v626h-233zM684 726v717h124l235 -544h3l236 544h123v-717h-98v538h-3l-229 -521h-60l-229 521h-3v-538h-99z" />
<glyph unicode="&#x25fc;" horiz-adv-x="1075" d="M0 0v1075h1075v-1075h-1075z" />
<glyph unicode="&#xfb01;" horiz-adv-x="979" d="M23 966v111h150v123q0 141 65.5 206.5t200.5 65.5q49 0 89 -9v-111q-35 8 -78 8q-73 0 -108 -38t-36 -124v-121h219v-111h-219v-966h-133v966h-150zM694 1379q0 37 26.5 63.5t63.5 26.5t63 -26.5t26 -63.5q0 -36 -26 -62.5t-63 -26.5t-63.5 26.5t-26.5 62.5zM718 0v1077 h132v-1077h-132z" />
<glyph unicode="&#xfb02;" horiz-adv-x="979" d="M23 966v111h150v123q0 141 65.5 206.5t200.5 65.5q49 0 89 -9v-111q-35 8 -78 8q-73 0 -108 -38t-36 -124v-121h219v-111h-219v-966h-133v966h-150zM718 0v1506h132v-1506h-132z" />
</font>
</defs>
</svg>
