<?xml version="1.0" standalone="no"?> <!DOCTYPE svg PUBLIC "-//W3C//DTD SVG 1.0//EN" "http://www.w3.org/TR/2001/REC-SVG-20010904/DTD/svg10.dtd" > <svg xmlns="http://www.w3.org/2000/svg" width="100%" height="100%">
<defs >
<font id="forte" horiz-adv-x="873" ><font-face
    font-family="Forte"
    units-per-em="2048"
    panose-1="3 6 9 2 4 5 2 7 2 3"
    ascent="1802"
    descent="-438"
    alphabetic="0" />
<missing-glyph horiz-adv-x="1024" d="M82 1365H942V0H82V1365ZM123 1324V41H901V1324H123Z" />
<glyph unicode=" " glyph-name="space" horiz-adv-x="544" />
<glyph unicode="!" glyph-name="exclam" horiz-adv-x="748" d="M215 369Q147 369 147 436Q147 453 158 502Q240 858 334 1116Q356 1180 387 1214Q424 1254 501 1282T651 1311Q719 1311 719 1264Q719 1210 584 870Q444 525 422 494Q402 465 362 436T281 388T215
369ZM143 -4Q105 -4 81 17T57 74Q57 136 123 238Q135 256 147 268Q177 298 223 317T311 336Q351 336 375 319T399 274Q399 240 381 189T338 96Q324 73 291 51Q209 -4 143 -4Z" />
<glyph unicode="&quot;" glyph-name="quotedbl" horiz-adv-x="727" d="M268 946L276 1227L328 1466H532L483 1227L377 946H268ZM598 946L610 1227L662 1466H866L815 1227L707 946H598Z" />
<glyph unicode="#" glyph-name="numbersign" horiz-adv-x="1368" d="M78 1018H387L471 1401H659L575 1018H930L1012 1401H1202L1120 1018H1288V827H1083L1020 524H1288V336H985L901 -43H713L795 336H436L358 -43H168L248 336H78V524H287L350 827H78V1018ZM539
827L477 526H831L895 827H539Z" />
<glyph unicode="$" glyph-name="dollar" horiz-adv-x="1110" d="M795 1384L877 1358Q902 1438 958 1438Q979 1438 979 1415Q979 1386 954 1335Q952 1329 952 1329T950 1323Q1079 1254 1079 1153Q1079 1110 1059 1065T1006 989T946 958Q896 958 852 1051L760 778Q826
718 853 689T911 616Q983 520 983 397Q983 284 919 187T743 28T487 -47L483 -59Q420 -221 408 -233Q405 -238 395 -238Q381 -238 381 -215Q381 -207 389 -170T418 -55L422 -43L319 -23Q295 -110 242 -217Q234 -236 225 -236Q217 -236 211 -227T205 -211Q205 -188
242 -55Q249 -22 254 -8L258 4Q53 95 53 154Q53 174 76 212T125 276Q144 296 172 317T222 350T258 362Q287 362 326 315Q336 303 346 293L438 575Q355 637 324 665T248 745Q160 848 160 969Q160 1084 238 1196Q277 1254 325 1291T440 1354Q551 1393 655 1393Q669
1393 681 1393T709 1391Q716 1408 739 1422T786 1436Q801 1436 801 1415Q801 1410 795 1384ZM578 975L662 1229Q628 1233 627 1233Q532 1233 532 1102Q532 1035 578 975ZM629 387L563 180Q606 166 627 166Q668 166 668 240Q668 305 629 387ZM733 1198L631 905L692
842L801 1133L795 1141Q755 1183 733 1198ZM506 522L412 250L492 203L571 459L506 522Z" />
<glyph unicode="%" glyph-name="percent" horiz-adv-x="1749" d="M590 1415Q598 1419 606 1419Q637 1419 666 1383T714 1291T733 1178Q733 1081 693 963T588 748T453 600Q379 549 289 549Q188 549 119 631T49 836Q49 923 75 1017T147 1195T248 1333Q304 1386 375
1417T514 1448Q557 1448 590 1415ZM522 1386L530 1391L526 1395Q477 1385 434 1339Q372 1271 327 1149T281 926Q281 872 299 815T346 719T401 680Q423 680 448 712T494 799Q557 961 557 1094Q557 1165 537 1223T483 1311Q471 1323 471 1329Q471 1342 514 1378Q516
1380 518 1382T522 1386ZM1581 635Q1589 637 1599 637Q1629 637 1659 603T1707 515T1726 401Q1726 342 1709 266T1663 120T1595 -16T1513 -125Q1412 -231 1298 -231Q1185 -231 1117 -153T1049 51Q1049 168 1086 281T1188 480T1333 616T1501 666Q1567 666 1581 635ZM1530
610V606L1526 610Q1489 602 1470 591T1427 551Q1370 485 1329 383Q1276 250 1276 129Q1276 20 1343 -63Q1377 -106 1397 -106Q1416 -106 1443 -71T1491 18Q1519 90 1535 166T1552 299Q1552 474 1458 547Q1514 596 1530 610ZM709 592L727 621Q765 679 845 803T1005
1040T1117 1199T1180 1282Q1259 1381 1315 1417Q1352 1444 1389 1444Q1418 1444 1443 1427T1483 1380T1499 1321Q1499 1288 1484 1251T1436 1161T1333 1008Q1325 996 1314 980T1300 961L1266 909L1233 864Q936 440 657 96Q606 31 557 -16Q490 -86 432 -86Q400 -86
377 -66T354 -16Q354 34 625 455Q635 470 645 487T668 526L709 592Z" />
<glyph unicode="&amp;" glyph-name="ampersand" horiz-adv-x="1174" d="M604 842Q648 880 682 934T734 1050T752 1176Q752 1249 719 1249Q686 1249 654 1210T602 1110T582 979Q582 942 587 912T604 842ZM430 465Q395 421 381 387T367 307Q367 252 403 214T494
176Q540 176 592 207Q575 226 567 240Q548 266 529 297T459 416Q448 435 443 444T430 465ZM676 111L625 80Q518 22 450 -1T309 -25Q197 -25 125 41T53 209Q53 293 115 383T319 596Q339 613 347 620T365 635Q338 762 338 854Q338 991 398 1112T557 1306T768 1378Q851
1378 915 1350T1013 1270T1047 1149Q1047 1099 1026 1049T969 956Q906 883 858 840T664 682Q687 627 723 578Q744 547 772 514Q819 459 891 397Q907 402 924 418Q932 426 936 426Q945 426 952 416Q956 408 956 406Q956 400 946 387Q937 378 932 365Q1018 300 1087
262Q1143 236 1143 217Q1143 192 1122 150T1067 74Q1033 40 988 19T901 -2Q857 -2 823 9T754 43T676 111Z" />
<glyph unicode="&apos;" glyph-name="quotesingle" horiz-adv-x="391" d="M264 946L276 1221L328 1466H532L481 1221L375 946H264Z" />
<glyph unicode="(" glyph-name="parenleft" horiz-adv-x="705" d="M492 1024Q458 960 440 916T401 795Q362 641 362 485Q362 186 571 115Q604 102 604 92Q604 68 576 46T499 10T399 -4Q339 -4 278 17T180 74Q118 135 83 229T47 432Q47 558 82 689T183 941T339
1164T535 1337Q603 1382 635 1382Q658 1382 674 1375T690 1356Q690 1341 637 1264Q575 1170 522 1079Q515 1066 492 1024Z" />
<glyph unicode=")" glyph-name="parenright" horiz-adv-x="662" d="M217 276Q362 521 362 756Q362 852 338 934T267 1077T154 1176Q129 1190 120 1200T111 1225Q111 1256 162 1311Q196 1345 237 1365T315 1386Q403 1386 487 1300Q631 1155 631 870Q631 727 594
600T477 356Q418 265 335 176T178 35Q153 16 126 5T80 -6Q65 -6 56 3T47 27Q47 58 92 104Q155 178 217 276Z" />
<glyph unicode="*" glyph-name="asterisk" horiz-adv-x="682" d="M276 1133L266 1143L258 1153Q166 1253 166 1282Q166 1312 213 1341Q297 1393 334 1393Q362 1393 388 1361T434 1270L457 1290Q545 1382 582 1382Q608 1382 626 1365T645 1321Q645 1297 624 1269T541
1178L528 1165L518 1153Q556 1112 614 1069Q639 1051 650 1040T662 1020Q662 981 586 981Q544 981 511 991T412 1038L399 1044L387 1053Q328 1026 301 1018T238 1010Q191 1010 148 1033T104 1079Q104 1092 114 1100T137 1108H147H158Q223 1108 276 1133Z" />
<glyph unicode="+" glyph-name="plus" horiz-adv-x="1366" d="M125 784H575V1233H788V784H1241V569H788V121H575V569H125V784Z" />
<glyph unicode="," glyph-name="comma" horiz-adv-x="449" d="M106 -178Q47 -178 47 -111Q47 -40 93 74T193 250Q218 279 248 291T332 303Q424 303 424 248V244Q417 178 383 109Q343 22 315 -25T256 -102Q223 -138 182 -158T106 -178Z" />
<glyph unicode="-" glyph-name="hyphen" horiz-adv-x="512" d="M170 311Q117 311 84 341T51 418Q51 447 67 492T102 555Q148 598 295 598Q399 598 444 579T489 514Q489 461 461 422Q435 386 367 360Q234 311 170 311Z" />
<glyph unicode="." glyph-name="period" horiz-adv-x="406" d="M135 -2Q45 -2 45 59Q45 78 55 117T76 180Q106 249 131 270Q160 296 217 316T319 336Q381 336 381 264Q381 196 342 98Q332 70 319 57T274 31Q189 -2 135 -2Z" />
<glyph unicode="/" glyph-name="slash" horiz-adv-x="961" d="M211 379L471 1020Q527 1158 584 1254T698 1399T809 1448Q863 1448 895 1411T928 1315Q928 1275 883 1159T780 932L563 504Q500 380 431 255T304 35T225 -82Q204 -105 176 -118T119 -131Q90 -131 69
-111T47 -63Q47 -15 193 334Q195 342 197 347T201 358L211 379Z" />
<glyph unicode="0" glyph-name="zero" horiz-adv-x="1087" d="M842 1286H852Q906 1286 955 1237T1034 1106T1063 934Q1063 843 1037 732T968 517T863 317T735 156Q579 -2 416 -2Q307 -2 224 52T96 207T51 438Q51 662 144 867T392 1200T709 1327Q788 1327 842 1286ZM752
1239L770 1249L766 1253Q702 1252 635 1189T513 1025T425 799T391 561Q391 480 419 395T491 252T575 195Q606 195 640 236T702 354Q731 427 752 507T784 665T795 807Q795 908 763 999T678 1135Q668 1142 668 1149Q668 1172 752 1239Z" />
<glyph unicode="1" glyph-name="one" horiz-adv-x="768" d="M340 907L360 956Q345 952 313 938Q244 909 225 909Q207 909 196 928T184 979Q184 1005 197 1041T225 1090Q251 1110 453 1204L483 1217Q492 1223 512 1231Q645 1296 682 1296Q715 1296 733 1277T752
1223Q752 1148 682 958Q666 912 657 886T629 807Q624 788 618 768Q583 651 567 592Q565 585 554 545T537 486T526 449Q459 193 414 121Q399 98 379 80Q336 47 305 29T245 4T180 -4Q128 -4 88 26T47 96Q47 103 51 119Q169 470 340 907Z" />
<glyph unicode="2" glyph-name="two" horiz-adv-x="918" d="M330 504L346 524Q414 627 442 677T487 782Q512 858 512 940Q512 1024 492 1066T416 1135Q346 1034 346 879Q346 819 365 756Q373 733 373 725Q373 696 342 696Q314 696 266 719T193 768Q165 798 147
846T129 948Q129 1024 160 1093T249 1213T384 1292T551 1321Q639 1321 711 1283T827 1177T870 1030Q870 971 848 904T777 755T652 573T475 360L455 336L438 317Q480 305 553 305Q626 305 699 313T815 334Q843 342 852 342Q862 342 862 336Q862 299 815 221T715
92Q661 41 586 18T399 -6Q257 -6 155 33T53 127Q53 165 156 279Q229 362 289 444Q293 450 297 456T305 467T315 483L330 504Z" />
<glyph unicode="3" glyph-name="three" horiz-adv-x="1087" d="M365 129H371Q404 129 453 159T551 240Q613 304 649 376T686 512Q686 649 541 678Q513 682 501 690T489 717Q489 737 537 778Q609 841 649 915T690 1065Q690 1145 657 1145Q630 1145 590 1103T514
994T459 864Q453 842 447 836T430 829Q401 829 358 874Q297 939 297 1006Q297 1083 359 1159T522 1282T727 1329Q812 1329 882 1296T991 1205T1030 1073Q1030 940 915 860Q855 819 766 782V778Q907 770 978 715T1049 561Q1049 515 1028 460T967 346T872 229Q752
102 611 31T340 -41Q216 -41 134 38T51 236Q51 317 106 398T250 530T426 582Q463 582 463 555Q463 544 432 518Q429 515 426 512T418 504Q379 459 358 392T336 252Q336 180 365 129Z" />
<glyph unicode="4" glyph-name="four" horiz-adv-x="1004" d="M469 483L401 479Q254 469 219 469Q158 469 124 475T78 498T66 547Q66 572 80 618T137 770Q171 853 188 901Q241 1039 272 1100Q282 1119 289 1131T307 1161Q340 1213 387 1243Q494 1315 590 1315Q666
1315 666 1278Q666 1229 475 958Q382 826 313 713L547 725Q572 808 613 861T718 941T864 967Q907 967 924 958T942 926Q942 906 927 857T887 741L879 721Q899 723 905 723T922 725Q931 726 937 726T952 727Q975 727 975 715Q975 711 973 709Q955 669 923 623T864
549Q843 524 809 514Q787 442 727 238Q725 229 723 214T719 193Q704 110 680 88Q601 41 541 19T424 -4Q383 -4 351 16T319 63Q319 89 340 157T401 325T469 483Z" />
<glyph unicode="5" glyph-name="five" horiz-adv-x="1004" d="M514 1044L440 913L444 909Q515 939 570 952T678 965Q815 965 891 901T967 719Q967 661 951 597T902 467T824 338T711 207Q613 108 515 52T338 -4Q281 -4 226 18T129 82Q55 156 55 291Q55 471 158
573Q209 625 277 658T397 692Q451 692 451 662V659Q408 608 387 573T342 477Q303 377 303 244Q303 141 344 141Q397 141 459 203Q527 274 577 379T627 557Q627 659 585 707T449 756Q397 756 309 737Q261 729 258 729Q229 729 210 748T190 799Q190 825 217 907Q260
1045 307 1157L313 1171Q318 1181 330 1208Q359 1279 381 1297T463 1315Q652 1315 748 1311Q770 1311 786 1309H799Q874 1305 901 1296T928 1268Q928 1251 906 1217T850 1151Q794 1095 734 1065T616 1034Q591 1034 537 1040Q521 1044 520 1044H514Z" />
<glyph unicode="6" glyph-name="six" horiz-adv-x="1044" d="M500 776Q465 776 428 735T368 631T344 506Q344 424 375 353T462 240T578 197Q610 197 629 215Q661 252 681 335T702 512Q702 595 678 654T609 745T500 776ZM612 956L551 885L555 881Q689 969 784 969Q856
969 912 934T1000 839T1032 700Q1032 606 1001 506T913 312T780 145Q712 79 612 41T416 2Q231 2 134 80T37 309Q37 442 123 638T389 1110Q460 1223 506 1272Q529 1297 549 1307T612 1323Q687 1335 764 1335Q881 1335 881 1272Q881 1240 807 1174Q764 1138 668 1022L612
956Z" />
<glyph unicode="7" glyph-name="seven" horiz-adv-x="956" d="M395 729L580 1114Q571 1116 557 1116Q503 1116 350 1063Q271 1035 228 1024T154 1012Q98 1012 98 1055Q98 1091 127 1151T195 1260Q221 1293 243 1304T309 1315Q328 1315 340 1313L565 1309Q792 1303
879 1266Q911 1250 911 1219Q911 1191 874 1114L696 731H715H764H795Q846 731 846 719Q846 697 824 657T776 592Q717 530 590 502L455 172Q451 160 446 147Q431 107 414 88Q369 49 298 25T156 0Q110 0 84 17T57 61Q57 92 123 209Q126 214 128 217T133 227L264 465H252Q240
463 217 463Q131 463 131 528Q131 549 147 592Q188 684 215 709Q229 723 297 723Q340 723 395 729Z" />
<glyph unicode="8" glyph-name="eight" horiz-adv-x="1004" d="M313 573L389 625Q284 719 237 799T190 963Q190 1033 222 1097T312 1210T446 1287T606 1315Q733 1315 733 1272Q733 1258 702 1255Q640 1244 602 1192Q573 1154 552 1095T530 991Q530 887 612 827Q668
886 700 951T733 1073Q733 1128 702 1163Q694 1171 694 1176Q694 1192 729 1214Q782 1249 838 1249Q875 1249 907 1231T956 1179T973 1102Q973 1011 918 929T727 733Q809 652 847 579T885 432Q885 350 841 269T723 123T556 19T375 -20Q233 -20 145 51T57 236Q57
331 110 401T313 573ZM504 537Q441 482 406 403T371 238Q371 172 387 135T432 98Q443 98 460 106T485 123Q528 166 561 237T594 358Q594 421 570 467T504 537Z" />
<glyph unicode="9" glyph-name="nine" horiz-adv-x="1004" d="M573 678Q613 774 634 869T655 1051Q655 1127 632 1172T569 1217Q553 1217 528 1203T483 1167Q430 1112 400 1039T369 897Q369 813 425 752T573 678ZM551 623V618L547 623Q461 566 404 544T283 522Q178
522 112 595T45 786Q45 917 127 1041T341 1244T606 1321Q752 1321 858 1217Q979 1096 979 887Q979 737 904 578T706 287T433 75T143 -6Q111 -6 98 1T84 27Q84 37 94 46T127 66Q210 102 290 184T439 380T551 623Z" />
<glyph unicode=":" glyph-name="colon" horiz-adv-x="598" d="M260 324Q315 323 350 302T385 250Q385 192 349 133T255 34T143 -6Q100 -6 72 17T43 80Q43 113 61 162T104 250Q133 292 176 307Q219 324 258 324H260ZM324 578Q281 578 250 608T219 678Q219 716 244
774T297 858Q326 887 375 905T469 924Q563 924 563 870V868Q560 812 524 735Q490 654 463 633Q440 612 398 595T324 578Z" />
<glyph unicode=";" glyph-name="semicolon" horiz-adv-x="598" d="M129 -207Q84 -207 58 -179T31 -106Q31 -49 64 37T154 217Q165 238 197 272Q249 322 313 322Q342 322 366 309T403 273T416 221Q416 174 376 78T285 -94Q244 -153 201 -182Q164 -207 129 -207ZM324
621Q254 621 254 684Q254 713 274 762T322 856Q323 858 326 863T336 877Q359 897 401 911T483 926Q592 926 592 823Q592 770 566 723T502 662Q454 643 402 632T324 621Z" />
<glyph unicode="&lt;" glyph-name="less" horiz-adv-x="1366" d="M1239 115L127 580V772L1239 1237V1006L420 676L1239 348V115Z" />
<glyph unicode="=" glyph-name="equal" horiz-adv-x="1366" d="M127 1024H1239V809H127V1024ZM127 547H1239V332H127V547Z" />
<glyph unicode="&gt;" glyph-name="greater" horiz-adv-x="1366" d="M127 1237L1239 774V580L127 115V348L946 676L127 1006V1237Z" />
<glyph unicode="?" glyph-name="question" horiz-adv-x="831" d="M350 1233Q307 1188 285 1137Q233 1017 233 899Q233 858 250 809Q254 799 254 791Q254 772 229 772Q186 772 145 814T77 922T51 1053Q51 1194 150 1286T401 1378Q508 1378 601 1337T750 1227T805
1077Q805 950 709 819Q668 765 632 729T522 635V631Q561 631 593 631T662 631T713 633Q720 634 725 634T735 635Q770 635 770 608Q770 591 746 550T690 479Q581 371 319 371Q127 371 127 444Q127 457 138 475T186 541Q245 612 303 696Q449 916 449 1081Q449 1147
426 1183T350 1233ZM186 -10Q149 -10 122 16T94 80Q94 118 118 176T166 258Q201 292 258 311T379 330Q471 330 471 266Q471 243 463 211Q437 99 412 74Q376 41 258 4Q214 -10 186 -10Z" />
<glyph unicode="@" glyph-name="at" horiz-adv-x="2079" d="M1829 18H2009Q1946 -113 1792 -229Q1657 -333 1496 -381T1126 -430Q892 -430 705 -368T386 -190T186 95T117 469Q117 650 171 819T328 1127T565 1350Q635 1395 725 1427T913 1476T1106 1493Q1350 1493
1546 1393T1852 1113T1962 713Q1962 532 1877 366T1651 98T1360 -4Q1201 -4 1176 104Q1169 128 1167 164Q1098 85 1018 41T860 -4Q760 -4 677 55T546 217T498 446Q498 604 572 752T768 992T1016 1083Q1205 1083 1319 899L1352 1055H1532L1386 383Q1381 358 1379
346T1372 313Q1358 254 1358 227Q1358 202 1379 182T1427 162Q1460 162 1515 192T1620 266Q1667 310 1702 361T1760 469T1798 588T1812 717Q1812 894 1719 1039T1462 1266T1096 1348Q919 1348 767 1285T501 1104T326 828T264 485Q264 244 366 71T663 -192T1130
-283Q1287 -283 1413 -250T1653 -145Q1721 -102 1754 -72T1829 18ZM682 434Q682 352 710 286T786 182T897 145Q964 145 1029 186T1148 299T1231 461T1262 645Q1262 733 1233 799T1151 900T1026 936Q962 936 900 895T789 783T712 620T682 434Z" />
<glyph unicode="A" glyph-name="A" horiz-adv-x="1493" d="M821 956L637 567H909L825 956H821ZM735 1219L674 1329Q697 1347 717 1354Q794 1380 903 1380Q1013 1380 1073 1317Q1125 1262 1158 1163T1219 881Q1234 788 1245 741Q1280 610 1291 574T1333 457Q1343
434 1359 393T1391 315Q1424 237 1491 109Q1407 50 1349 24T1243 -2Q1184 -2 1145 21T1073 94Q1035 162 997 279Q993 290 988 307T975 344Q858 295 793 295Q756 295 729 297Q706 299 516 303L506 283Q450 166 402 105T292 19T135 -6Q81 -6 58 6T35 45Q35 78 145
227Q184 279 203 309Q98 329 98 383Q98 427 182 514Q222 556 256 567T377 580Q457 727 479 767T536 869T615 1009T735 1219Z" />
<glyph unicode="B" glyph-name="B" horiz-adv-x="1343" d="M723 1151L594 713Q606 711 618 711Q671 711 741 760Q829 821 877 890T926 1026Q926 1163 782 1163Q742 1163 723 1151ZM573 637Q569 624 565 608T557 578Q510 419 471 320T387 152Q362 110 315 63Q436
26 487 15T590 4Q649 4 694 21T780 78Q839 136 876 216T913 371Q913 453 856 510Q828 538 794 553T698 578Q642 589 620 599T573 637ZM137 506L254 866Q288 963 336 1055Q331 1054 313 1044Q244 1016 215 1016Q174 1016 174 1047Q174 1080 206 1142T270 1235Q343
1302 492 1341T827 1380Q939 1380 1029 1361T1184 1305T1281 1214T1315 1096Q1315 1005 1277 934T1157 801Q1066 733 985 711Q976 708 954 705V700Q1305 655 1305 410Q1305 361 1289 308T1241 204T1165 111Q1070 18 940 -62T677 -191T451 -240Q372 -240 300 -222T184
-175T141 -111Q141 -80 158 -53T223 14L219 18Q192 8 166 8Q111 8 77 40T43 127Q43 158 71 271T137 506Z" />
<glyph unicode="C" glyph-name="C" horiz-adv-x="1260" d="M799 725Q838 825 865 949T893 1155Q893 1208 868 1208Q845 1208 784 1147Q693 1049 622 922T513 661T475 401Q475 301 496 264T578 227Q630 227 707 256Q881 325 1075 453Q1161 508 1184 508Q1217 508
1217 475V473Q1212 428 1186 371Q1134 261 1096 227Q1032 170 921 115T692 25T496 -10Q405 -10 324 24T183 119T89 259T55 430Q55 499 77 579T141 748T236 913Q267 959 300 1001T374 1083T463 1160T551 1223Q621 1270 696 1305T835 1357T952 1374Q1083 1374 1157
1306T1231 1118Q1231 992 1169 855T1004 614Q933 541 863 499T737 457Q688 457 688 504Q688 526 715 565Q753 619 799 725Z" />
<glyph unicode="D" glyph-name="D" horiz-adv-x="1393" d="M725 1159L524 399Q522 392 516 362Q498 283 475 240Q459 207 424 164Q453 162 489 162Q576 162 634 173T742 213T836 285Q919 370 963 482T1008 725Q1008 845 972 943T872 1097T725 1159ZM49 164L287
967Q313 1060 340 1098Q357 1120 385 1135V1139H371Q342 1139 250 1106Q149 1071 111 1071Q91 1071 84 1078T76 1102Q76 1142 98 1189T157 1275T231 1329Q318 1363 467 1382T791 1401Q979 1401 1111 1342T1311 1167T1380 887Q1380 722 1315 555T1141 274Q888 6
465 6Q329 6 217 28T68 82Q45 100 45 135Q45 144 49 164Z" />
<glyph unicode="E" glyph-name="E" horiz-adv-x="1260" d="M883 453L518 455V430Q518 357 560 298T653 238Q705 238 803 276T1028 385L1063 406Q1099 426 1112 436Q1171 473 1186 473Q1204 473 1204 440Q1204 404 1191 358T1158 270T1118 209Q1061 158 923 98T643
4Q595 -6 555 -6Q418 -6 305 49T129 202T66 418Q66 516 107 634T222 869T389 1083Q470 1167 570 1235T764 1341T938 1378Q1062 1378 1150 1308T1239 1137Q1239 1093 1223 1041T1180 950Q1152 908 1097 868T973 799Q890 766 831 766Q772 766 772 795Q772 812 805
848Q841 880 874 936Q906 995 930 1075T954 1200Q954 1237 932 1237Q897 1237 806 1160T662 1008Q612 938 580 866T537 723H1071Q1159 723 1159 678Q1159 636 1061 541Q964 453 883 453Z" />
<glyph unicode="F" glyph-name="F" horiz-adv-x="1024" d="M348 989L371 1047Q259 1050 215 1069T170 1137Q170 1176 201 1214Q236 1262 276 1301T350 1358Q379 1370 430 1370Q554 1370 711 1356Q747 1354 771 1353T823 1350Q889 1350 907 1348T950 1335Q967 1329
979 1317Q1004 1291 1004 1235Q1004 1131 932 1102Q890 1084 856 1079T733 1065L625 707Q702 707 750 711Q780 713 842 713Q915 713 945 698T975 643Q975 613 946 556T883 465Q867 449 838 444T739 438H725H700Q633 438 547 432Q502 280 464 200T371 63Q333 24
291 3T211 -18Q150 -18 106 17T61 98Q61 154 156 448T348 989Z" />
<glyph unicode="G" glyph-name="G" horiz-adv-x="1280" d="M756 184Q656 89 570 46T395 2Q290 2 215 52T101 196T61 418Q61 577 144 746T369 1060T676 1290T999 1376Q1251 1376 1251 1155Q1251 1069 1205 988T1081 858T918 809Q883 809 883 834Q883 841 895 868Q922
921 936 983Q952 1071 952 1118Q952 1202 932 1202Q885 1202 801 1135T662 989Q613 920 572 825T507 633T483 455Q483 378 516 329T602 279Q693 279 807 510Q843 574 855 591T891 623Q953 662 1047 692T1194 723Q1255 723 1255 662Q1255 657 1249 618Q1178 325
1077 82T881 -264Q837 -311 751 -342T575 -373Q501 -373 425 -348T299 -284T250 -207Q250 -182 278 -150T354 -86Q430 -35 455 -35Q481 -35 528 -92Q585 -158 649 -201Q684 -119 716 0T756 184Z" />
<glyph unicode="H" glyph-name="H" horiz-adv-x="1536" d="M528 451L508 385Q503 363 492 326Q438 137 403 78Q396 66 377 43Q312 -16 219 -16Q145 -16 100 16T55 100Q55 137 81 232T139 414Q61 429 61 481Q61 518 85 564T147 648T219 696Q234 739 276 877Q371
1176 430 1278Q454 1312 471 1331Q523 1380 604 1380Q654 1380 692 1363T751 1315T772 1243Q772 1186 629 764Q627 757 623 744T614 719L610 711L979 719L997 782Q1028 884 1062 983T1120 1143T1170 1250T1217 1319Q1269 1376 1360 1376Q1516 1376 1516 1241Q1516
1114 1380 778Q1360 728 1356 717Q1360 718 1363 718T1370 719Q1425 719 1457 700T1489 647Q1489 625 1462 584Q1435 543 1405 512T1352 467Q1331 456 1270 444L1266 428Q1259 413 1245 373Q1224 315 1202 257T1166 166T1137 111Q1120 87 1098 70Q1050 33 988 10T885
-14Q838 -14 811 9T784 74Q784 146 860 373Q878 423 885 446L528 451Z" />
<glyph unicode="I" glyph-name="I" horiz-adv-x="1188" d="M713 1186H705Q621 1186 426 1122Q282 1075 236 1075Q204 1075 181 1095T158 1145Q158 1193 212 1263T322 1356Q403 1389 662 1389Q765 1389 869 1379T1044 1352T1135 1315Q1145 1305 1145 1272Q1145
1241 1129 1163T1090 1012Q949 571 756 219Q708 131 664 83T566 15T438 -6Q332 -6 241 34T98 144T45 297Q45 355 69 421T125 524Q140 543 160 543Q193 543 222 512T285 406Q334 293 397 217Q404 208 428 182Q475 287 500 354T559 535Q582 607 637 813Q680 986 713
1186Z" />
<glyph unicode="J" glyph-name="J" horiz-adv-x="1087" d="M606 1135Q587 1130 571 1126T545 1119T496 1104Q324 1053 268 1053Q214 1053 181 1073T147 1130Q147 1189 195 1262T299 1356Q351 1376 424 1385T612 1395Q840 1395 947 1369T1055 1288Q1055 1246 1019
1080T944 784Q794 248 600 -106Q557 -185 508 -240T407 -322T297 -350Q216 -350 139 -232T61 14Q61 108 93 196T182 344Q214 374 249 396T303 418Q319 418 328 400T338 348Q338 332 330 291Q295 101 295 -35Q295 -109 311 -164Q347 -103 369 -39Q426 143 463 297Q523
550 551 715T606 1135Z" />
<glyph unicode="K" glyph-name="K" horiz-adv-x="1409" d="M655 860L858 1079Q942 1160 988 1199T1102 1282Q1221 1362 1319 1362Q1393 1362 1393 1307Q1393 1265 1373 1223T1319 1147Q1258 1086 1085 981Q955 901 881 840Q893 766 907 707T940 602T991 492Q1028
420 1071 360Q1179 214 1286 168Q1319 152 1319 139Q1319 114 1284 84Q1238 36 1173 10T1040 -16Q918 -16 821 48T672 229Q612 360 594 547Q590 579 590 618H586Q545 559 527 523T471 391Q426 270 388 205T301 98Q255 58 199 31T106 4Q79 4 61 24T43 74Q43 92 45
102Q92 291 147 485T261 852T368 1145T444 1298Q476 1335 539 1358T670 1382Q732 1382 758 1366T784 1311Q784 1259 678 967Q671 946 655 902T631 836L635 831L655 860Z" />
<glyph unicode="L" glyph-name="L" horiz-adv-x="788" d="M625 858L592 778Q527 624 471 471Q444 397 389 213Q472 220 612 248Q702 266 721 266Q756 266 756 238Q756 205 718 146T631 43Q598 12 533 0T330 -12Q201 -12 131 -4Q130 -4 98 6Q41 30 41 106Q41 161
72 307T164 670Q300 1154 369 1268Q391 1307 424 1328T516 1362Q572 1374 645 1374Q713 1374 740 1357T768 1296Q768 1255 732 1143T625 858Z" />
<glyph unicode="M" glyph-name="M" horiz-adv-x="2218" d="M1227 522L1247 567Q1483 1100 1589 1260Q1606 1282 1618 1294T1645 1317T1686 1337Q1758 1368 1872 1368Q1931 1368 1946 1358T1962 1313Q1962 1286 1960 1255Q1952 1075 1952 999Q1952 807 1978 635Q1995
539 2028 440Q2063 352 2095 305Q2133 253 2159 229Q2191 197 2191 180Q2191 149 2138 96Q2049 10 1960 10Q1835 10 1733 117Q1681 169 1651 232T1605 389T1585 627Q1578 783 1577 803H1573Q1510 682 1468 601T1400 467T1337 340Q1223 104 1188 55Q1186 53 1180
46T1169 35Q1152 19 1131 11T1094 2Q1052 2 1002 54T913 190Q874 278 850 369T807 586T774 893H770Q740 827 725 794T679 692T643 612Q602 521 557 428T485 285T424 186Q409 163 371 121Q312 65 242 34T109 2Q85 2 67 14T49 45Q49 62 76 90Q91 108 141 182L199
272Q253 352 362 559L410 649Q578 971 637 1089T696 1227Q696 1248 666 1274Q643 1293 643 1307Q643 1329 701 1348T827 1368Q964 1368 1022 1307Q1058 1269 1089 1158T1151 834Q1153 822 1154 816T1156 804T1157 791Q1163 763 1163 754Q1184 625 1195 588T1227
522Z" />
<glyph unicode="N" glyph-name="N" horiz-adv-x="1642" d="M242 475L311 664L406 905Q455 1036 494 1112Q522 1166 522 1188Q522 1217 475 1251Q444 1272 444 1288Q444 1308 506 1331Q559 1353 627 1369T737 1386Q821 1386 864 1341Q914 1290 987 1024Q1017 916
1053 815T1114 670Q1121 654 1151 608Q1184 713 1229 883Q1295 1151 1350 1245Q1367 1275 1389 1298Q1430 1336 1477 1356T1573 1376Q1602 1376 1613 1361T1624 1307Q1624 1278 1620 1264Q1610 1212 1585 1130T1515 918T1401 604L1386 567Q1378 543 1372 528Q1251
189 1188 88Q1175 67 1157 49Q1126 18 1096 18Q1019 18 930 182Q768 476 676 786Q657 844 647 895H643L522 514Q520 504 514 489T504 459Q500 448 495 435T485 412Q452 312 431 262T389 178Q371 147 336 111Q285 64 223 37T100 10Q49 10 49 51Q49 82 94 158Q146
245 211 397Q222 429 242 475Z" />
<glyph unicode="O" glyph-name="O" horiz-adv-x="1300" d="M662 1087Q593 1018 562 974T494 846Q467 786 455 719Q440 660 440 567Q440 436 465 349T539 217T657 172Q713 172 771 213T877 320T954 469T983 627Q983 764 889 913Q854 973 854 995Q854 1036 899 1077Q950
1126 1016 1164T1120 1202Q1142 1202 1166 1192T1204 1165Q1236 1132 1257 1044T1278 856Q1278 620 1182 421T920 105T561 -12Q450 -12 341 29T164 139Q49 254 49 440Q49 548 91 669T206 904T376 1114T575 1264Q668 1314 775 1344T963 1374Q1077 1374 1077 1339Q1077
1325 1053 1296Q1009 1255 977 1238T870 1200Q790 1176 754 1157T662 1087Z" />
<glyph unicode="P" glyph-name="P" horiz-adv-x="1217" d="M377 1145L391 1180Q358 1180 335 1175T281 1157Q243 1143 229 1143Q212 1143 201 1156T190 1188Q190 1227 221 1268T299 1327Q359 1351 453 1365T641 1380Q746 1380 829 1365T978 1317T1092 1235Q1141
1186 1167 1121T1194 983Q1194 917 1168 835T1094 675T991 543Q926 480 827 437T645 393Q610 393 584 405T557 436Q557 464 578 488T655 549Q703 577 745 616Q795 671 818 733T842 881Q842 963 814 1020T723 1122L586 678L561 600Q545 554 518 442Q469 249 426
174Q407 141 377 109Q329 67 256 36T129 4Q94 4 74 24T53 82Q53 123 73 202T158 485L176 541L195 602L377 1145Z" />
<glyph unicode="Q" glyph-name="Q" horiz-adv-x="1386" d="M944 133Q885 90 819 59T685 11T561 -6Q415 -6 300 52T121 217T57 457Q57 572 104 711T231 971Q256 1007 290 1048T362 1121T442 1182Q524 1237 626 1280T831 1346T1026 1370Q1089 1370 1114 1358T1139
1317Q1139 1291 1110 1262Q1079 1234 975 1206Q840 1173 753 1123T610 999Q542 908 501 788T459 561Q459 420 532 322T715 223Q780 223 840 262Q838 267 825 285Q787 348 754 379T666 434Q628 452 614 465T600 498Q600 525 639 545T737 565Q809 565 873 534T1012
434Q1031 490 1032 494Q1049 545 1049 623Q1049 686 1038 736T1005 832T942 932Q901 984 901 1012Q901 1079 1006 1143Q1088 1192 1147 1192Q1240 1192 1291 1109T1343 877Q1343 697 1262 522Q1223 442 1137 317Q1168 288 1194 273T1255 245T1364 215Q1361 182
1348 140T1318 62T1282 12Q1259 -8 1217 -8Q1141 -8 1077 25T944 133Z" />
<glyph unicode="R" glyph-name="R" horiz-adv-x="1280" d="M352 1065L379 1133Q349 1130 317 1124Q297 1120 262 1120Q213 1120 213 1169Q213 1190 225 1218T254 1262Q289 1295 400 1316T662 1337Q777 1337 881 1306T1062 1221T1180 1096T1223 942Q1223 853 1186
777T1081 643Q1036 605 997 585T885 543Q904 508 918 489T967 436Q1057 355 1225 289Q1233 285 1245 281Q1227 196 1211 157T1161 72Q1099 -10 1012 -10Q964 -10 894 25T778 109Q743 150 714 196T654 300T603 414T571 512Q569 520 569 535Q569 556 581 568T625
590Q670 606 699 625T772 686Q822 741 850 814T879 963Q879 1052 838 1101T707 1171Q621 858 537 582L516 506Q464 326 429 239T358 117Q323 82 249 48T133 14Q51 14 51 106Q51 144 73 236T143 478T241 771T352 1065Z" />
<glyph unicode="S" glyph-name="S" horiz-adv-x="1044" d="M342 641Q256 728 221 795T186 940Q186 1056 256 1158T445 1320T700 1380Q854 1380 937 1316T1020 1135Q1020 1079 990 1019T907 907Q871 871 840 853T788 834Q762 834 762 874Q762 873 766 905Q772 952
772 989Q772 1041 757 1093T717 1181T670 1217Q659 1217 645 1200Q618 1172 603 1131T588 1053Q588 1008 601 970T646 891T731 803Q815 727 860 670T927 557T948 434Q948 318 887 210T726 36T518 -31Q416 -31 319 13T137 139Q49 226 49 293Q49 334 88 373Q128 413
186 441T285 469Q308 469 324 458T352 419T377 344Q396 277 412 245T457 180Q487 150 520 150Q560 150 583 181T606 268Q606 354 545 440Q527 469 506 491T412 578Q390 596 342 641Z" />
<glyph unicode="T" glyph-name="T" horiz-adv-x="961" d="M647 651L637 608Q632 586 628 571T622 544T616 520Q544 212 500 135Q480 101 440 74Q314 -8 242 -8Q192 -8 158 28T123 119Q123 217 209 481Q235 565 256 627T308 767T377 933T432 1057Q300 1038 178
1038Q55 1038 55 1124Q55 1179 135 1264Q189 1319 235 1340T346 1362Q388 1362 461 1360T664 1348L692 1346L719 1343Q829 1337 864 1329T924 1298Q944 1275 944 1245Q944 1213 932 1180T901 1130Q876 1102 760 1083Q750 1083 739 1081L719 1077Q743 1053 743 1024Q743
996 715 903Q706 880 672 752L657 692L647 651Z" />
<glyph unicode="U" glyph-name="U" horiz-adv-x="1280" d="M801 471H803H799Q723 339 666 258T557 125Q493 61 429 28T307 -6Q185 -6 117 67T49 274Q49 446 143 780Q175 891 208 988T279 1176T338 1305Q353 1331 378 1346T451 1372Q523 1386 586 1386Q692 1386
692 1294Q692 1242 647 1139Q606 1041 582 969Q580 963 575 949T563 913Q544 853 512 733T462 529T444 420Q444 383 465 383Q488 383 569 487Q646 586 744 738T907 1010Q949 1087 968 1115T1008 1159Q1061 1198 1133 1198Q1225 1198 1225 1114Q1225 1097 1219 1044Q1192
826 1192 641Q1192 557 1197 489T1212 356T1239 219Q1260 122 1260 100Q1260 84 1249 70Q1233 46 1186 31Q1099 -2 1053 -2Q995 -2 944 40T858 158Q819 247 807 391Q804 415 801 471Z" />
<glyph unicode="V" glyph-name="V" horiz-adv-x="1114" d="M877 1210Q934 1265 987 1303T1061 1341Q1092 1341 1092 1282Q1092 1213 1077 1133T1034 975Q990 844 918 685T778 403Q734 326 664 217Q609 133 567 94T465 29Q413 9 375 2Q329 -6 301 -6Q251 -6 225
18Q194 51 168 133Q137 233 106 397T63 682Q55 766 55 918Q55 1195 115 1255Q136 1276 193 1304T307 1348Q351 1360 381 1360Q455 1360 455 1278Q455 1235 446 1112Q430 864 430 723Q430 477 451 354Q463 295 469 272Q507 322 532 364T582 455Q631 555 651 610Q715
767 752 940Q776 1063 807 1116Q830 1160 877 1210Z" />
<glyph unicode="W" glyph-name="W" horiz-adv-x="1665" d="M737 590H733Q656 440 573 315Q474 167 406 96Q369 61 314 35T219 8Q209 8 193 14T166 33Q115 88 84 315T53 868Q53 1132 92 1219Q108 1256 138 1280T227 1327Q279 1348 334 1362T422 1376Q450 1376 466
1362T483 1323Q483 1313 479 1296Q458 1203 440 1034Q427 922 422 852T413 661T408 422L412 418Q457 476 508 557Q526 587 543 613T580 674Q626 756 662 834Q680 870 694 907Q844 1241 905 1294Q933 1319 1007 1341T1141 1364Q1179 1364 1204 1347T1229 1300Q1229
1274 1202 1196Q1150 1045 1118 866T1085 547Q1085 262 1196 262Q1228 262 1261 310T1317 432T1356 604T1372 807Q1372 869 1366 954Q1364 977 1364 997Q1364 1107 1485 1219Q1544 1276 1573 1276Q1642 1276 1642 1016Q1642 831 1602 662Q1552 459 1464 317Q1418
240 1355 169T1229 55Q1150 0 1061 0Q897 0 817 127T737 522V590Z" />
<glyph unicode="X" glyph-name="X" horiz-adv-x="1473" d="M422 897L408 932Q395 956 365 1028Q314 1147 291 1193T244 1264Q230 1275 211 1286Q186 1302 186 1309Q186 1316 195 1323Q213 1341 291 1359T432 1378Q517 1378 577 1336T702 1188Q796 1033 879 795Q922
846 958 898T1036 1020Q1089 1103 1101 1121T1133 1164T1180 1219Q1222 1257 1286 1283T1401 1309Q1448 1309 1448 1268Q1448 1241 1407 1171T1277 983T1044 680Q1042 677 1031 662T1005 630T981 600Q1032 484 1077 420Q1109 372 1143 332T1217 254Q1263 207 1321
172Q1343 156 1343 147Q1343 134 1327 121Q1295 90 1246 63T1151 21T1063 6Q935 6 829 104Q791 143 769 175T711 279L649 213Q478 30 322 -97T115 -225Q87 -225 68 -196T49 -123Q49 -66 70 -8T121 80Q139 98 221 156Q373 253 481 352Q530 395 612 485L453 827L422
897Z" />
<glyph unicode="Y" glyph-name="Y" horiz-adv-x="1409" d="M582 1128L590 1053Q594 1035 596 991Q619 717 668 502Q690 412 721 328Q763 412 807 508Q823 544 837 576T855 619T874 662Q895 712 942 838Q972 922 982 949T1024 1042Q1061 1125 1124 1188Q1160 1225
1206 1259T1293 1312T1360 1331Q1399 1331 1399 1300Q1399 1272 1378 1227Q1323 1090 1228 891T1033 503T864 205Q808 112 752 37Q646 -110 561 -187T369 -311Q313 -336 246 -348Q196 -356 168 -356Q117 -356 86 -338T55 -287Q55 -250 90 -177T164 -61Q188 -37
254 -37Q326 -37 375 -20Q409 -11 445 6T526 53Q449 184 394 298T299 522Q247 665 215 829T182 1116Q182 1187 198 1223T254 1284Q312 1321 384 1347T502 1374Q541 1374 554 1346T571 1229Q576 1164 582 1128Z" />
<glyph unicode="Z" glyph-name="Z" horiz-adv-x="1280" d="M422 637L508 733Q571 803 624 866T716 978T793 1077Q803 1093 808 1102T823 1128Q737 1118 627 1092Q492 1060 410 1051Q402 1050 391 1050T367 1049T342 1047Q238 1050 238 1124Q238 1158 273 1219T358
1331Q378 1353 397 1359T469 1366Q489 1367 509 1367T590 1368L729 1372L838 1376Q853 1377 865 1377T905 1378H913H936H958H981Q1108 1378 1161 1370T1233 1339Q1251 1318 1251 1300Q1251 1275 1190 1198Q1148 1149 1053 1018Q1046 1009 983 922L930 846Q710 532
635 399Q630 388 627 381T616 360Q758 367 823 375Q957 392 1053 414Q1100 426 1124 426Q1176 426 1176 377Q1176 328 1137 253T1053 137Q1009 96 932 66T754 20T547 4Q399 4 290 24T121 81T61 172Q61 215 114 288T334 541Q393 607 422 637Z" />
<glyph unicode="[" glyph-name="bracketleft" horiz-adv-x="788" d="M115 686L121 778Q124 832 127 862Q136 986 144 1071T165 1218T192 1311T225 1354Q267 1384 418 1384Q616 1384 695 1356T774 1257Q774 1202 755 1173T700 1143Q684 1143 662 1147Q605 1157
537 1157Q506 1157 475 1155L467 1114L414 799L397 715Q325 346 303 250Q296 222 293 205L358 207Q379 209 422 209Q518 209 554 195T590 145Q590 119 577 80T547 25Q528 9 482 2T358 -6Q194 -6 138 -1T65 23T47 92Q47 148 76 350Q108 613 115 686Z" />
<glyph unicode="\" glyph-name="backslash" horiz-adv-x="961" d="M854 164L858 150L864 135Q930 -31 930 -66Q930 -93 909 -112T856 -131Q832 -131 804 -118T754 -82Q718 -43 609 144T399 530L178 971Q142 1041 114 1110T69 1236T51 1319Q51 1376 83 1412T168
1448Q226 1448 282 1399T395 1252T520 989L854 164Z" />
<glyph unicode="]" glyph-name="bracketright" horiz-adv-x="831" d="M408 -4L301 -8H256H227Q158 -8 119 -1T63 24T45 74Q45 101 63 150Q80 185 92 195Q104 209 170 209H188H225Q280 209 373 215Q381 243 389 283Q400 368 414 455Q440 654 452 794T475 1149Q353
1145 299 1137Q255 1130 233 1130Q203 1130 192 1138T180 1167Q180 1203 200 1255T240 1329Q266 1356 356 1372T563 1389Q629 1389 697 1374T784 1339Q809 1318 809 1276Q809 1213 799 1161L702 629Q604 78 551 23Q531 1 408 -4Z" />
<glyph unicode="^" glyph-name="asciicircum" horiz-adv-x="961" d="M238 690H53L408 1491H553L907 690H725L479 1288L238 690Z" />
<glyph unicode="_" glyph-name="underscore" horiz-adv-x="1024" d="M-12 -256V-151H1036V-256H-12Z" />
<glyph unicode="`" glyph-name="grave" horiz-adv-x="682" d="M461 1479Q480 1479 495 1465T530 1411Q572 1328 643 1260Q652 1251 660 1244T678 1227Q699 1211 708 1199T717 1171Q717 1126 643 1126Q476 1126 354 1245Q321 1278 303 1306T285 1352Q285 1363 313
1389T381 1442Q437 1479 461 1479Z" />
<glyph unicode="a" glyph-name="a" horiz-adv-x="1130" d="M797 520L778 514Q706 494 674 494Q635 494 635 514Q635 521 651 551Q707 636 707 711Q707 754 692 789T659 825Q643 825 610 791Q517 690 463 584T408 395Q408 340 430 304T487 268Q516 268 595 330T774
494L801 516L797 520ZM737 291V287L733 291Q640 182 563 113T420 8T299 -27Q187 -27 114 48T41 238Q41 309 77 406T176 596Q281 748 440 854Q604 963 756 963Q884 963 966 911T1049 778Q1049 719 1008 653Q1062 653 1076 642T1090 588Q1090 592 1085 547Q1079 448
1079 362Q1079 317 1080 294T1084 241T1090 193Q1098 146 1116 100Q1056 41 1001 14T889 -14Q735 -14 735 244Q735 274 737 291Z" />
<glyph unicode="b" glyph-name="b" horiz-adv-x="961" d="M627 426Q602 418 592 418Q557 418 535 444T512 510Q512 589 568 714T686 899Q731 944 788 944Q832 944 864 915T913 830T930 700Q930 514 852 351T644 91T365 -6Q268 -6 196 40T85 172T45 373Q45 481
80 615T178 889T328 1161Q420 1304 539 1384Q621 1442 711 1442Q803 1442 858 1386T913 1237Q913 1171 863 1099T736 979T586 932Q551 932 551 950Q551 964 580 1001Q628 1061 661 1139T694 1276Q694 1329 678 1329Q658 1329 616 1263T541 1112Q463 908 421 725T379
412Q379 315 410 249T487 182Q544 182 582 246T627 426Z" />
<glyph unicode="c" glyph-name="c" horiz-adv-x="788" d="M600 965Q676 962 721 921T766 811Q766 751 732 690T645 590T539 551Q508 551 508 573Q508 581 520 608Q559 674 559 760Q559 803 549 803Q535 803 509 767T465 682Q434 605 414 518T393 371Q393 303 413
264T471 225Q505 225 562 261T670 350Q691 377 707 377Q731 377 731 350Q731 227 635 127Q569 61 484 21T330 -20Q211 -20 132 55T53 244Q53 358 103 483T241 722T440 911Q520 965 596 965H600Z" />
<glyph unicode="d" glyph-name="d" horiz-adv-x="1174" d="M688 440V498Q637 453 612 453Q598 453 598 467Q598 473 604 492Q625 552 625 608Q625 689 590 776Q575 821 553 821Q542 821 535 811Q502 773 472 704T423 553T403 408Q403 289 475 289Q511 289 571
331T688 440ZM719 915L729 956Q760 1093 785 1177T836 1320T889 1405Q931 1450 1040 1450Q1088 1450 1111 1445T1149 1427Q1101 1278 1083 1204T1042 999Q1008 787 1008 616Q1008 503 1026 382T1087 111Q1034 74 986 48T894 7T817 -8Q759 -8 735 49Q715 96 709
124T688 283Q554 143 432 63T236 -18Q152 -18 99 50T45 227Q45 324 86 442T201 672Q249 745 299 795T414 889Q530 965 608 965Q646 965 719 915Z" />
<glyph unicode="e" glyph-name="e" horiz-adv-x="874" d="M397 311Q443 342 467 373Q520 438 549 522Q572 577 585 645T598 772Q598 827 575 827Q543 827 477 686Q438 601 414 517T389 371Q389 350 397 311ZM399 279Q410 219 477 219Q552 219 672 307Q742 358
766 358Q796 358 822 342T848 309Q848 291 819 262Q766 209 697 159T564 75T436 22T322 2Q197 2 122 73T47 264Q47 355 86 469T193 684Q272 801 387 879Q529 973 659 973Q753 973 806 914T860 750Q860 669 818 581T692 412Q624 344 559 306T444 268Q422 268 399
279Z" />
<glyph unicode="f" glyph-name="f" horiz-adv-x="752" d="M420 215L418 160Q404 -39 382 -164T332 -317Q294 -358 213 -358Q126 -358 88 -324Q73 -307 68 -293T63 -242V-233V-223V-211Q66 70 117 354T252 871T436 1241T635 1378Q680 1378 702 1348T725 1260Q725
1175 707 1080T664 924T612 864Q588 864 588 948V967V979Q588 1063 585 1089T569 1124Q558 1102 553 1073Q529 953 514 856T469 541Q468 529 466 514T463 487H477Q489 488 499 488T530 489Q568 494 598 494Q717 494 717 432Q717 400 695 355T641 279Q610 249 571
236T457 217Q441 217 435 217T420 215Z" />
<glyph unicode="g" glyph-name="g" horiz-adv-x="1126" d="M770 487V483L766 487Q760 485 750 485Q731 483 702 483Q651 483 651 502Q651 512 664 526Q702 569 729 639T760 766Q760 780 762 791Q763 795 763 798T764 803Q764 817 745 817Q706 817 625 733Q574
679 529 605T459 457T434 324Q434 266 463 266Q491 266 604 360Q655 404 770 487ZM719 274L692 254Q689 251 683 246T666 233Q493 98 395 43T223 -12Q142 -12 93 47T43 205Q43 328 112 459T296 701T546 877T809 944Q934 944 999 901T1065 772Q1065 700 1008 594Q1049
591 1068 569T1087 498Q1087 420 1055 281T977 23Q921 -126 817 -236Q738 -319 621 -378T420 -438Q350 -438 295 -382T240 -256Q240 -209 264 -159T326 -72Q404 7 555 78Q583 92 598 92Q604 92 609 87T614 76Q614 69 602 49Q572 -2 549 -81T526 -219Q526 -287 547
-287Q558 -287 574 -263T604 -207Q689 9 713 193Q716 220 719 274Z" />
<glyph unicode="h" glyph-name="h" horiz-adv-x="1024" d="M725 1219V1235Q725 1272 715 1272Q702 1272 675 1232T625 1143Q570 1018 528 879T463 600Q455 546 446 483L451 479Q551 582 600 625T727 723Q825 791 889 791Q930 791 952 762T975 680Q975 650 963
594Q942 476 942 395Q942 358 948 317Q953 285 981 188Q1004 114 1004 106Q1004 92 971 72Q865 2 776 2Q703 2 658 73T612 258Q612 303 621 367L616 371Q474 225 426 174Q248 2 152 2Q108 2 80 60T51 213Q51 415 176 729Q226 851 282 962T389 1155Q426 1212 466
1254T548 1325T633 1368T719 1382Q826 1382 893 1316T961 1147Q961 1075 920 994T805 840Q758 794 699 759T606 723Q596 723 588 730T580 748Q580 763 606 813Q636 868 665 947T709 1098T725 1219Z" />
<glyph unicode="i" glyph-name="i" horiz-adv-x="512" d="M199 -10Q154 -7 117 31Q80 71 65 117T49 238Q49 403 110 610T250 911Q281 950 336 950Q394 950 429 897T465 758Q465 631 429 461T326 106Q300 32 262 6Q236 -10 201 -10H199ZM319 995Q225 998 225 1108Q225
1163 252 1235T315 1343Q333 1362 351 1370T399 1378Q449 1378 472 1354T496 1272Q496 1201 472 1138T406 1035T322 995H319Z" />
<glyph unicode="j" glyph-name="j" horiz-adv-x="598" d="M330 897Q386 950 436 950Q491 950 525 913T559 815Q559 729 542 636T482 408T348 8Q317 -84 275 -163T190 -293Q177 -309 156 -309Q113 -309 82 -234T51 -55Q51 59 72 146T119 233Q129 233 143 221Q147
219 149 218T154 215Q156 233 158 255T162 293Q179 492 201 603T260 793Q283 843 330 897ZM403 997Q362 999 338 1028T313 1106Q313 1167 339 1237T401 1343Q434 1376 483 1376Q535 1376 556 1351T578 1268Q578 1159 527 1078T406 997H403Z" />
<glyph unicode="k" glyph-name="k" horiz-adv-x="1024" d="M1004 -178Q864 -358 791 -358Q738 -358 680 -317T570 -205T489 -52T459 104Q459 146 473 160Q479 166 500 180Q668 284 668 377Q668 426 625 426Q579 426 507 338T375 121Q340 40 315 18Q292 -2 244
-2Q191 -2 152 27T92 111T70 236Q70 344 97 472T172 729T288 981T428 1198Q572 1380 709 1380Q777 1380 830 1349T913 1261T942 1128Q942 1035 896 943T777 792T629 733Q594 733 594 758Q594 768 612 805Q700 979 700 1200Q700 1257 686 1257Q676 1257 656 1228T616
1157Q506 910 457 588Q454 571 451 543T442 479L446 475Q487 533 513 561T584 623Q719 729 836 729Q896 729 934 694T973 604Q973 469 887 326Q863 284 832 243T741 137Q777 76 823 14Q864 -40 926 -94Q980 -139 1004 -178Z" />
<glyph unicode="l" glyph-name="l" horiz-adv-x="938" d="M592 748Q632 861 659 984T686 1174Q686 1192 676 1192Q660 1192 620 1121T553 975Q495 812 464 705T420 524T408 375Q408 310 422 280T469 250Q524 250 592 298T715 426Q758 485 782 485Q813 485 813
436Q813 329 746 227T574 62T358 -2Q223 -2 138 83T53 305Q53 417 101 567T229 870T406 1147T596 1337Q654 1380 725 1380Q779 1380 823 1347T891 1253T915 1120Q915 963 854 813T682 553Q630 500 582 470T498 440Q463 440 463 467Q463 482 489 524Q524 579 571
690Q575 701 580 713T592 748Z" />
<glyph unicode="m" glyph-name="m" horiz-adv-x="1579" d="M1143 362L870 82Q817 29 785 10T713 -10Q652 -10 611 35T569 147Q569 188 581 236T631 381Q638 401 644 415T655 440L651 444Q554 342 461 229Q383 136 337 90T254 21T188 -2Q123 -2 85 49T47 188Q47
299 143 547Q229 767 276 842Q345 946 434 946Q488 946 523 921T559 854Q559 779 502 625Q480 568 457 496L461 492Q498 533 580 633Q721 807 793 870Q886 956 963 956Q997 956 1028 933T1077 872T1096 791Q1096 748 1034 571Q1021 534 1014 513T1001 477L1006
473Q1020 487 1031 498T1055 521T1081 545Q1108 571 1217 682Q1289 762 1330 791T1409 821Q1471 821 1503 779T1536 653Q1536 602 1520 492Q1506 368 1501 298T1495 199Q1495 178 1497 146T1506 76T1522 -6Q1534 -61 1538 -92Q1530 -128 1486 -153T1389 -178Q1307
-178 1235 -104Q1203 -70 1186 -36T1161 46T1153 172Q1153 223 1165 383L1161 387L1143 362Z" />
<glyph unicode="n" glyph-name="n" horiz-adv-x="1044" d="M481 528L541 598Q632 699 685 748T781 820T868 842Q939 842 968 804T997 672Q997 633 989 557Q977 456 977 367Q977 267 987 205Q994 167 1008 129Q1018 93 1018 80Q1018 64 1006 55Q975 28 924 8T838
-12Q781 -12 735 27T663 135T637 291Q637 349 649 428L645 432Q602 384 576 356T526 303Q414 175 336 72Q306 32 281 2Q244 -35 197 -35Q133 -35 93 13T53 137Q53 184 64 252T93 397T137 557T193 713Q239 836 305 905Q350 950 414 950Q518 950 518 815Q518 716
477 532L481 528Z" />
<glyph unicode="o" glyph-name="o" horiz-adv-x="1110" d="M719 1006Q868 1006 868 971Q868 931 801 928Q720 923 650 882T526 770T441 610T410 422Q410 313 461 247T594 180Q670 180 727 258T784 440Q784 525 749 599T645 725Q616 748 616 758Q616 772 657 801Q703
832 760 853T856 874Q901 874 941 851T1013 784T1060 684T1077 563Q1077 457 1037 354T932 186Q848 105 730 54T504 2Q400 2 298 38T135 133Q55 213 55 360Q55 476 112 592T266 802T481 951T719 1006Z" />
<glyph unicode="p" glyph-name="p" horiz-adv-x="1130" d="M453 229Q481 147 559 147Q614 147 661 196T737 330T766 508Q766 582 755 636T729 690Q719 690 678 637T596 514Q512 378 469 274Q458 247 453 229ZM530 657L561 715Q605 792 642 843T709 919T778 958Q811
971 850 971Q926 971 984 926T1074 797T1106 604Q1106 447 1036 303T851 69T614 -20Q543 -20 496 10T408 113L401 96L395 74Q330 -135 292 -233T225 -354Q203 -375 174 -375Q117 -375 85 -319T53 -162Q53 -52 77 102T143 416T238 707Q272 787 313 847T391 934Q418
950 449 950Q495 950 520 925T545 854Q545 815 537 768Q531 722 526 662L530 657Z" />
<glyph unicode="q" glyph-name="q" horiz-adv-x="1122" d="M797 561H784H770Q760 561 753 561T737 559Q688 559 688 575Q688 585 709 616Q733 660 755 717T778 797Q778 821 762 821Q747 821 725 805Q686 779 644 738T566 652T506 565Q472 501 448 414T424 262Q424
217 440 217Q469 217 600 360Q665 429 741 506L797 561ZM635 188L596 156Q532 106 475 72T374 24T281 10Q180 10 119 74T57 242Q57 344 109 465T250 696T446 877Q601 981 793 981Q935 981 996 947T1057 829Q1057 742 1001 668Q978 637 930 602L942 594Q950 590
952 588Q1000 561 1014 544T1028 492Q1028 453 1007 344T956 137Q847 -229 756 -317Q734 -337 671 -359T569 -381Q538 -381 520 -360T502 -305Q502 -213 606 86Q628 150 633 166L639 184L635 188Z" />
<glyph unicode="r" glyph-name="r" horiz-adv-x="664" d="M391 305L387 285Q387 268 383 236Q379 187 372 156T351 105T313 61Q240 -6 166 -6Q106 -6 78 38T49 180Q49 258 66 372T109 578L117 604Q117 610 123 629Q160 765 191 830T266 936Q305 967 354 967Q425
967 440 881Q454 893 467 909Q496 944 512 955T549 967Q635 967 635 797Q635 704 615 617T565 475T504 420Q471 420 471 545Q471 611 464 648T440 707Q410 651 401 451Q394 335 391 305Z" />
<glyph unicode="s" glyph-name="s" horiz-adv-x="918" d="M350 -43Q409 -40 457 14T506 133Q506 177 477 203Q446 234 338 264Q179 310 131 367Q86 413 86 477Q86 592 169 707T383 895T645 969Q709 969 765 939T854 860T887 752Q887 695 851 634T761 533T657 492Q629
492 609 504T588 530Q588 544 596 571Q618 657 618 721Q618 784 580 840Q531 806 516 786Q478 742 457 686Q434 629 434 578Q434 542 450 521T504 484T618 451Q745 420 797 391Q809 384 834 362Q872 321 872 256Q872 187 829 117T696 -29Q600 -110 505 -145T295
-180Q184 -180 121 -136T57 -16Q57 38 99 93T203 184T326 219Q371 219 371 199Q371 189 358 166Q319 96 319 37Q319 -5 350 -43Z" />
<glyph unicode="t" glyph-name="t" horiz-adv-x="705" d="M242 967L246 979Q312 1165 360 1241Q383 1277 424 1305Q501 1354 569 1354Q609 1354 630 1336T651 1284Q651 1261 621 1190Q570 1072 545 969Q562 967 578 963Q638 954 657 943T676 901Q676 848 649 803T578
737Q545 722 471 717Q458 678 442 610Q433 550 422 444Q416 405 416 371Q416 213 569 213H575H578Q596 213 596 207Q596 191 562 153T487 86Q443 56 391 38T297 20Q192 20 127 91T61 279Q61 329 78 410T133 627Q139 651 146 677T154 709Q114 710 97 726T80 778Q80
841 128 897T242 967Z" />
<glyph unicode="u" glyph-name="u" horiz-adv-x="1087" d="M670 313L653 299Q648 296 586 248Q466 154 388 100T258 20T174 -6Q120 -6 88 38T55 154Q55 274 91 433T188 748Q255 920 352 958Q386 973 432 973Q495 973 534 934T573 831Q573 787 558 738T510 621L498
592Q412 410 412 371Q412 348 428 348Q443 348 467 369T541 446Q572 484 629 541L666 578L698 612Q799 712 863 756T969 801Q1049 801 1049 662Q1049 633 1042 559Q1030 415 1030 315Q1031 295 1031 279T1032 236Q1039 169 1042 133Q1049 76 1049 76Q1049 46 995
23T870 0Q805 0 759 25T688 101T664 223Q664 232 666 254T670 313Z" />
<glyph unicode="v" glyph-name="v" horiz-adv-x="883" d="M666 846L682 877Q707 929 723 946T768 963Q850 963 850 778Q850 724 842 685T815 610Q792 562 753 501T665 371T559 233Q459 106 390 47T274 -12Q187 -12 150 94Q124 161 103 256T69 448T57 637Q57 763
79 849T141 963Q176 983 215 983Q261 983 301 969T365 926Q386 905 396 871T410 766T414 571V520V424V311H418Q437 354 449 377Q481 440 573 643Q592 686 645 803L666 846Z" />
<glyph unicode="w" glyph-name="w" horiz-adv-x="1386" d="M618 414L575 324Q516 203 467 127T376 20T287 -12Q239 -12 203 29Q133 111 86 340Q49 525 49 659Q49 764 73 826T148 918T281 948Q324 948 343 933T370 873T377 737Q377 571 393 424Q395 416 403 344H408Q415
359 419 368T427 386T434 402T444 424Q497 544 555 700Q622 879 647 918Q654 927 666 938Q714 973 803 973Q850 973 873 956T904 897T915 762Q915 687 932 553T971 313Q978 277 1001 176H1006Q1028 242 1036 279Q1065 406 1065 645V690Q1065 761 1078 803T1124
881Q1159 916 1205 938T1286 961Q1327 961 1344 929T1362 823Q1362 659 1294 414Q1235 205 1139 29Q1108 -26 1079 -61T1019 -110T948 -125Q806 -125 715 57Q688 113 667 184T631 348Q626 364 623 414H618Z" />
<glyph unicode="x" glyph-name="x" horiz-adv-x="1024" d="M500 215L489 205Q484 201 474 192T455 174Q341 68 285 30T182 -8Q122 -8 84 27T45 119Q45 181 98 233Q112 247 170 293Q261 364 297 397Q336 436 369 475Q328 564 287 637Q260 680 238 717Q204 765 174
797T111 850Q72 873 72 893Q72 912 111 926T207 940Q340 940 436 872Q462 854 481 839T528 797T586 739Q666 843 744 899T883 956Q925 956 963 941T1001 907Q1001 869 969 817T862 680Q801 607 789 591T741 520L979 139Q999 106 999 82Q999 41 935 6T795 -29Q659
-29 586 70Q551 118 500 215Z" />
<glyph unicode="y" glyph-name="y" horiz-adv-x="1024" d="M692 686L705 729Q731 829 784 883Q818 917 862 939T942 961Q1008 961 1008 905Q1008 877 990 818T943 685T874 521T786 338Q699 160 610 37Q546 -51 480 -119T342 -241T205 -322T86 -350Q41 -350 41
-311Q41 -280 55 -237T94 -156Q121 -120 162 -92Q214 -56 315 -10Q255 91 224 150T156 297Q74 492 74 651Q74 772 104 848Q131 913 203 940Q261 963 307 963Q372 963 394 914T434 682Q452 487 492 297Q499 268 508 217H512Q539 276 571 360Q581 384 641 537Q675
629 692 686Z" />
<glyph unicode="z" glyph-name="z" horiz-adv-x="874" d="M567 772L524 756Q288 676 176 676Q100 676 100 743Q100 780 122 825T176 901Q214 940 247 955T330 971Q347 971 368 971T418 969Q616 961 683 958T791 946Q825 939 844 922T864 883Q864 819 514 301L477
246H524Q652 246 770 293Q800 303 807 303Q838 303 838 250Q838 163 792 92T663 -20T481 -61Q358 -61 258 -39T99 22T41 111Q41 137 65 172T164 285Q176 300 219 346L252 381L287 422L311 451L336 477Q422 572 481 647Q502 673 518 695T571 768L567 772Z" />
<glyph unicode="{" glyph-name="braceleft" horiz-adv-x="797" d="M190 569V809Q271 812 313 837T379 918Q398 968 404 1016T410 1167V1184V1202Q410 1277 413 1327T423 1415T442 1483Q470 1550 535 1591Q591 1625 649 1637T821 1649H874V1411H860Q774 1411 736
1400T684 1360T670 1266Q670 1293 666 1145Q665 1110 664 1079T661 1026T657 983Q654 925 633 866Q611 805 580 768T481 688Q594 623 633 510Q650 456 655 413T666 233Q670 87 670 113Q670 46 689 15T758 -27Q794 -33 860 -33H872V-272H821Q705 -272 646 -260T532
-213Q468 -170 442 -104Q423 -58 416 1T408 174V193V209Q408 314 402 364T377 459Q347 521 303 545Q260 565 190 569Z" />
<glyph unicode="|" glyph-name="bar" horiz-adv-x="1204" d="M494 1425H711V-276H494V1425Z" />
<glyph unicode="}" glyph-name="braceright" horiz-adv-x="799" d="M795 809V569Q740 566 706 555T648 521T608 459Q590 416 584 368T578 209V193V174Q578 56 571 0T543 -104Q514 -174 453 -213Q395 -248 338 -260T164 -272H113V-33H125Q192 -33 224 -28T279 -4Q300
14 307 38T315 113Q315 87 319 233Q323 292 325 331T328 395Q334 452 352 510Q375 572 409 613T504 688Q440 729 407 768T352 866Q338 908 334 932T326 1007T319 1145Q315 1293 315 1266Q315 1359 282 1385T125 1411H111V1649H164Q280 1649 340 1637T451 1591Q517
1548 543 1483Q562 1435 568 1380T575 1202V1184V1167Q575 1097 578 1050T587 975T606 918Q636 856 682 831Q709 818 730 814T795 809Z" />
<glyph unicode="~" glyph-name="asciitilde" horiz-adv-x="1366" d="M1167 860H1239Q1235 750 1199 667T1098 540T948 496Q905 496 862 504T753 536T567 612Q428 672 362 672Q294 672 253 627T199 496H129Q133 600 154 665T221 778Q258 818 308 839T414 860Q510
860 662 799Q739 771 797 745Q938 682 995 682Q1071 682 1115 728T1167 860Z" />
</font>
</defs>
</svg>
