<?xml version="1.0" standalone="no"?>
<!DOCTYPE svg PUBLIC "-//W3C//DTD SVG 1.1//EN" "http://www.w3.org/Graphics/SVG/1.1/DTD/svg11.dtd" >
<svg xmlns="http://www.w3.org/2000/svg">
<metadata>
Created by FontForge 20100429 at Wed Jan 16 20:59:26 2013
 By root
Copyright (C) 2012 by original authors @ fontello.com
</metadata>
<defs>
<font id="fontello" horiz-adv-x="1030" >
  <font-face 
    font-family="fontello"
    font-weight="500"
    font-stretch="normal"
    units-per-em="1000"
    panose-1="2 0 6 3 0 0 0 0 0 0"
    ascent="850"
    descent="-150"
    x-height="846"
    cap-height="845"
    bbox="12 -225 1963 925"
    underline-thickness="50"
    underline-position="-100"
    unicode-range="U+0021-1F6AB"
  />
<missing-glyph horiz-adv-x="364" 
d="M33 0v666h265v-666h-265zM66 33h199v600h-199v-600z" />
    <glyph glyph-name=".notdef" horiz-adv-x="364" 
d="M33 0v666h265v-666h-265zM66 33h199v600h-199v-600z" />
    <glyph glyph-name=".null" horiz-adv-x="0" 
 />
    <glyph glyph-name="nonmarkingreturn" horiz-adv-x="333" 
 />
    <glyph glyph-name="exclam" unicode="!" horiz-adv-x="1022" 
d="M402 612q-76 -9 -118 -52.5t-42 -121.5q0 -30 4 -50q20 -126 73 -358q34 -157 38 -174q-159 49 -251 185q-91 134 -91 307q0 215 141 356q140 140 355 140t355 -140q141 -141 141 -356q0 -182 -103 -312q-105 -132 -280 -172q-5 10 -33.5 53t-34.5 55q66 -26 86 -26
q16 0 16 50q0 94 -17 94q-24 0 -97 -56q0 14 -15 12h-5q-26 70 -26 124q0 15 3 30q94 -46 148 -46q30 0 93 18t63 40q0 12 -17 12q-15 0 -75 -7t-75 -7q-26 0 -60 14q-32 13 -32 38q0 5 1.5 7.5t5 3t6.5 0.5t8 -0.5t8 -0.5q5 0 26 -3t25 -3q28 0 127 37q96 36 96 57
q0 11 -17.5 16.5t-35.5 5.5q-12 0 -42 -8q-13 -3 -53 -16t-52 -16q4 17 4 32q0 48 -25 110t-58 92q-28 25 -72 34q-28 35 -88 65q-58 29 -105 29q-3 0 -51 -8l-22 -30l6 -2q4 0 21.5 2t21.5 2q33 0 78 -14q-37 -18 -62 -21q-39 -5 -39 -21q56 6 84 6q42 0 60 -6zM355 500
q-17 0 -36 -12.5t-18 -27.5q-3 6 -3 12q0 16 15 26t33 10q20 0 29 -12q-11 4 -20 4zM331 398q0 13 10.5 23.5t23.5 10.5t23.5 -10.5t10.5 -23.5t-10.5 -23.5t-23.5 -10.5t-23.5 10.5t-10.5 23.5zM380 400q9 0 9 8q0 10 -9 10t-9 -10q0 -8 9 -8zM539 496q4 24 35 24
q25 0 35 -22q-19 10 -33 10q-30 0 -37 -12zM562 418q0 11 9 19.5t20 8.5q12 0 20.5 -8t8.5 -20q0 -11 -9 -20.5t-20 -9.5q-10 0 -19.5 9.5t-9.5 20.5zM597 428q0 -8 7 -8q8 0 8 8q0 6 -8 6q-7 0 -7 -6z" />
    <glyph glyph-name="quotedbl" unicode="&#x22;" horiz-adv-x="1324" 
d="M454 94q18 0 31 11.5t13 29.5q0 11 -84 199q-87 195 -106 231q-6 15 -16 15q-7 0 -16 -15q-16 -31 -52 -114l-57 -127l-57 -126q-95 110 -95 234q0 107 53 190t136 130q172 98 375 98q337 0 581 -226q149 -138 149 -322q0 -15 -1 -19q-11 -153 -120 -256t-269 -147
q-107 -30 -229 -30h-8q-200 0 -315 53q-5 1 -7 6q0 2 3 2q1 0 4 -1h3q50 -12 89 -12q59 0 91 24q20 14 20 40q0 12 -6 24q-9 16 -58 34q-36 13 -114 33q-78 19 -123 36.5t-92 49.5q0 2 4.5 12.5t4.5 11.5q7 18 16 18h179q9 0 17 -21q22 -66 56 -66zM287 395l5 3q5 0 32 -64
q27 -63 27 -69q0 -4 -5 -4h-108q-5 0 -5 5q0 10 54 129zM587 98q47 0 47 45v388q0 45 -47 45t-47 -45v-388q0 -45 47 -45zM725 143q0 -45 47 -45t47 45v181l92 -185q14 -29 41 -29q32 0 46 29l91 185v-181q0 -45 47 -45q48 0 48 45v388q0 45 -47 45q-35 0 -47 -29l-138 -302
l-133 302q-14 29 -48 29q-46 0 -46 -45v-388z" />
    <glyph glyph-name="numbersign" unicode="#" horiz-adv-x="1039" 
d="M15 351h501v-501h-501v501zM524 349v501h500v-501h-500z" />
    <glyph glyph-name="dollar" unicode="$" horiz-adv-x="1004" 
d="M209 850h438q107 0 181 -74q81 -79 52 -229q-28 -135 -128 -214q-99 -78 -234 -78h-183l-63 -296h-257zM115 -150l11 49h216l63 295h183q135 0 234 78q100 79 128 214q21 96 -12 170q71 -85 43 -219q-30 -136 -129 -214t-233 -78h-184l-63 -295h-257zM639 605
q-8 28 -31 46t-56 18h-125l-55 -244h83l42 183h125q2 0 17 -3zM497 426q50 2 91 38.5t51 82.5q0 1 1 6t1 6h-114z" />
    <glyph glyph-name="percent" unicode="%" horiz-adv-x="989" 
d="M15 477q0 181 85.5 279t258.5 98h548l-109 -110l-137 -138l-111 -108q-40 -37 -41 -37q-15 0 -15 16v156h-48q-86 0 -132.5 -17.5t-63.5 -71.5q-12 -38 -12 -96v-262l-223 -223v514zM82 -154l109 110l135 138l112 108q40 37 42 37q15 0 15 -16v-156h48q117 0 161 35
q46 37 46 150v262l224 223v-514q0 -181 -85.5 -279t-258.5 -98h-548z" />
    <glyph glyph-name="ampersand" unicode="&#x26;" horiz-adv-x="950" 
d="M78 138q-26 0 -44.5 19t-18.5 44v269q0 26 18.5 44.5t44.5 18.5t44.5 -18.5t18.5 -44.5v-269q0 -25 -18.5 -44t-44.5 -19zM251 38q-25 0 -44 19t-19 44v418h574v-418q0 -25 -19 -44t-44 -19h-448zM188 566q0 116 85 189q86 74 202 74t202 -74q85 -73 85 -189h-574z
M289 882q0 -2 48 -91l15 8l-49 89q-6 2 -7 2q-7 0 -7 -8zM304 75q0 27 19 45t47 18q25 0 44 -19t19 -44v-202q0 -27 -19 -45t-47 -18q-25 0 -44 19t-19 44v202zM349 734q-16 0 -28 -11.5t-12 -27.5t11.5 -28t27.5 -12q17 0 28.5 11.5t11.5 28.5q0 16 -11.5 27.5t-27.5 11.5z
M517 75q0 27 19.5 45t46.5 18q25 0 44 -19t19 -44v-202q0 -27 -19 -45t-47 -18q-26 0 -44.5 19t-18.5 44v202zM602 734q-16 0 -28 -11.5t-12 -27.5t11.5 -28t27.5 -12q17 0 28.5 11.5t11.5 28.5q0 16 -11.5 27.5t-27.5 11.5zM598 799l15 -9l48 89v2q0 9 -7 9q-6 0 -18 -18
q-11 -17 -24 -44zM809 201v268q0 26 19 45t44 19t44 -19t19 -45v-268q0 -25 -18.5 -44t-44.5 -19t-45 18.5t-18 44.5z" />
    <glyph glyph-name="quotesingle" unicode="'" horiz-adv-x="854" 
d="M751 187q35 0 55 -21.5t20 -57.5q0 -30 -23 -78q-24 -49 -74 -89t-112 -64q-71 -27 -161 -27q-210 0 -325 135q-116 137 -116 366q0 169 64.5 289.5t182.5 173.5q81 36 178 36q129 0 217 -61q80 -53 131 -146.5t51 -206.5q0 -93 -47 -120q-46 -27 -132 -27h-423
q0 -85 30 -148q26 -58 71.5 -93.5t110.5 -35.5q75 0 133 43q32 23 56 47l66 69q15 16 47 16zM237 429h392q-8 125 -60 188q-51 62 -136 62q-82 0 -133 -63q-53 -63 -63 -187z" />
    <glyph glyph-name="parenleft" unicode="(" 
d="M161 704q146 146 354 146t354 -146t146 -354t-146 -354t-354 -146t-354 146t-146 354t146 354zM250 85q110 -110 265 -110t264 109q111 111 111 266t-110 265t-265 110t-265 -110t-110 -265t110 -265zM328 162l124 250l250 126l-124 -250z" />
    <glyph glyph-name="parenright" unicode=")" horiz-adv-x="827" 
d="M15 524h63q83 -119 144 -219h2v219h68v-344h-62l-86 129l-59 88h-2v-217h-68v344zM443 541h51l-127 -382h-51zM622 524h71l119 -344h-74l-22 70h-119l-23 -70h-73zM615 307h84l-21 67l-20 68h-2q-31 -100 -41 -135z" />
    <glyph glyph-name="asterisk" unicode="*" 
d="M355 -128q-10 -2 -30 -8t-38 -10t-34 -4q-26 0 -46.5 17t-25.5 40l-164 687q-2 16 -2 18q0 26 17 46.5t40 25.5l197 47q-63 -72 -63 -168q0 -186 253 -283q58 -23 109 -58q63 -44 63 -102q0 -41 -34.5 -66t-80.5 -25q-63 0 -125.5 24t-100.5 59l-79 -179q53 -30 144 -61z
M434 566q0 37 35 58t76 21q52 0 110 -17q60 -18 88 -47l61 170q-90 48 -186 63q2 0 45 12q47 13 71 18q28 6 43 6q26 0 46.5 -17t25.5 -40l164 -687q2 -16 2 -18q0 -26 -17 -46.5t-40 -25.5l-145 -34q47 71 47 152q0 111 -70 182q-71 72 -185 110q-171 58 -171 140z" />
    <glyph glyph-name="plus" unicode="+" horiz-adv-x="1214" 
d="M332 -150q-76 0 -145.5 17.5t-120.5 60.5t-51 104q0 87 89 155t215 68h54q-42 41 -42 86q0 30 16 58q-7 -1 -29 -1q-103 0 -170 65q-66 65 -66 160q0 92 82 159q83 68 187 68h310l-69 -50h-98q45 -17 72.5 -66.5t27.5 -112.5q0 -93 -88 -162q-36 -28 -48 -46
q-11 -17 -11 -42q0 -19 27 -48q30 -32 54 -49q60 -42 84 -88q24 -45 24 -113q0 -91 -82 -157t-222 -66zM186 -52q60 -49 145 -49q118 0 173 44q53 43 53 117q0 47 -37 88q-4 4 -40 31q-35 25 -51 35q-39 12 -77 12q-90 1 -158 -47q-67 -48 -67 -114q0 -69 59 -117zM193 624
q10 -72 57.5 -132.5t112.5 -61.5q63 -2 95.5 54.5t23.5 130.5q-9 72 -56.5 130.5t-112.5 60.5q-63 2 -96 -53t-24 -129zM748 600v50h200v200h50v-200h201v-50h-201v-201h-50v201h-200z" />
    <glyph glyph-name="comma" unicode="," horiz-adv-x="1136" 
d="M15 677v21l2 2h249l2 -2v-20q0 -8 -10 -8l-26 -1q-33 -1 -33 -20q0 -14 7 -28q52 -128 222 -484l6 -1l111 221q-3 6 -11 23.5t-11 25.5l-96 190q-24 48 -34 60q-8 10 -33 14q-14 2 -14 7v21l3 2h197l5 -1v-21q0 -8 -10 -8l-15 -2q-7 -1 -10 -1.5t-7.5 -2.5t-5.5 -5t-1 -8
q0 -6 4 -18l14 -30l73 -150l81 162q9 17 10.5 27t-6 16t-16.5 8t-29 4q-10 0 -10 9v19l3 2q57 2 186 0l2 -2v-20q0 -8 -9 -8q-22 -1 -30 -4.5t-17 -15.5q-22 -34 -30 -48l-105 -196l-3 -7l128 -262l8 -3l202 481q11 27 -2 40t-40 14l-19 1q-3 0 -6.5 3t-3.5 6v20l3 2h229
l2 -2v-20q0 -7 -9 -9q-44 -2 -64.5 -17t-35.5 -51l-250 -567q-21 -48 -46 -30q-13 10 -23 31q-40 80 -122 263q-100 -205 -131 -264q-41 -71 -71 -1q-13 30 -128 280.5t-132 290.5q-16 42 -28 52q-10 10 -52 13q-14 2 -14 7z" />
    <glyph glyph-name="hyphen" unicode="-" horiz-adv-x="970" 
d="M15 739q-1 16 20 37q12 12 50 28q4 2 17.5 8t19 8t20.5 8t22 8l22 7q15 5 21.5 4.5t21.5 2t21 -0.5q43 -6 54 -35q16 -43 102 -320q72 -232 116 -361q274 90 326 105q21 8 41 3t29 -22q23 -47 32 -99q9 -53 1 -74q-33 -27 -135 -61q-26 -9 -100.5 -32.5t-100.5 -32.5
q-152 -54 -226 -67q-57 -9 -70 6q-19 19 -32 52q-5 12 -15 43.5t-20 66.5t-13 43l-63 186l-92 281l-62 184q-7 16 -7 24z" />
    <glyph glyph-name="period" unicode="." horiz-adv-x="806" 
d="M538 701q0 5 2 27t4 22t5 9.5t7.5 18.5t9.5 8q10 -2 22 8q13 10 31 4q43 0 65 -24q5 -6 10 -28t5 -34v-39h92v-775h-776v775h92q0 38 5 71q4 21 11 29t25 17q18 8 40 8q42 0 64 -24q5 -6 10.5 -28t5.5 -34v-39h55v39q0 1 1 8.5t2 16t2.5 17.5t4 14.5t5.5 5.5q7 -1 24 16
t41 8q54 0 67 -29q10 -22 12 -43q2 -24 2 -25v-28h54v28zM80 -37h139v112h-139v-112zM219 97v119h-139v-119h139zM219 238v130h-139v-130h139zM219 389v112h-139v-112h139zM188 559q37 0 37 33v130q0 33 -37 33t-37 -33v-130q0 -33 37 -33zM240 -37h152v112h-152v-112z
M392 97v119h-152v-119h152zM392 238v130h-152v-130h152zM392 389v112h-152v-112h152zM403 559q38 0 38 33v130q0 33 -38 33q-37 0 -37 -33v-130q0 -33 37 -33zM413 -37h152v112h-152v-112zM565 97v119h-152v-119h152zM565 238v130h-152v-130h152zM565 389v112h-152v-112h152
zM619 559q37 0 37 33v130q0 33 -37 33q-38 0 -38 -33v-130q0 -33 38 -33zM586 -37h140v112h-140v-112zM726 97v119h-140v-119h140zM726 238v130h-140v-130h140zM586 389h140v112h-140v-112z" />
    <glyph glyph-name="slash" unicode="/" horiz-adv-x="1339" 
d="M670 625q-29 0 -49.5 -20.5t-20.5 -48.5v-417q0 -121 -86 -205t-206 -84q-121 0 -207 86t-86 207v181h224v-179q0 -29 20.5 -49t48.5 -20q29 0 49.5 20.5t20.5 48.5v423q0 118 86 200t206 82q118 0 206 -83q86 -82 86 -201v-92l-134 -40l-89 42v80q0 28 -20.5 48.5
t-48.5 20.5zM739 140v183l89 -42l134 40v-184q0 -29 20.5 -49.5t48.5 -20.5t48.5 20.5t20.5 49.5v187h224v-181q0 -121 -86 -207t-206 -86q-122 0 -207 85q-86 86 -86 205z" />
    <glyph glyph-name="zero" unicode="0" horiz-adv-x="927" 
d="M410 612v238h107v-238h-107zM410 -50v238h107v-238h-107zM675 453h239v-106h-239v106zM252 453v-106h-238v106h238zM276 512l-168 169l75 75l168 -169zM744 44l-168 169l75 75l168 -169zM183 44l-75 75l168 169l75 -75z" />
    <glyph glyph-name="one" unicode="1" horiz-adv-x="927" 
d="M410 612v238h107v-238h-107zM410 -50v238h107v-238h-107zM252 453v-106h-238v106h238zM276 512l-168 169l75 75l168 -169zM744 44l-168 169l75 75l168 -169zM744 756l75 -75l-168 -169l-75 75zM183 44l-75 75l168 169l75 -75zM905 400q0 -4 5 -4q4 0 4 4t-4 4q-5 0 -5 -4
zM908 400q0 2 2 2q1 0 1 -2t-1 -2q-2 0 -2 2z" />
    <glyph glyph-name="two" unicode="2" horiz-adv-x="927" 
d="M410 612v238h107v-238h-107zM410 -50v238h107v-238h-107zM675 453h239v-106h-239v106zM252 453v-106h-238v106h238zM276 512l-168 169l75 75l168 -169zM744 756l75 -75l-168 -169l-75 75zM183 44l-75 75l168 169l75 -75z" />
    <glyph glyph-name="three" unicode="3" horiz-adv-x="927" 
d="M410 612v238h107v-238h-107zM675 453h239v-106h-239v106zM252 453v-106h-238v106h238zM276 512l-168 169l75 75l168 -169zM744 44l-168 169l75 75l168 -169zM744 756l75 -75l-168 -169l-75 75zM183 44l-75 75l168 169l75 -75z" />
    <glyph glyph-name="four" unicode="4" horiz-adv-x="927" 
d="M410 612v238h107v-238h-107zM410 -50v238h107v-238h-107zM675 453h239v-106h-239v106zM252 453v-106h-238v106h238zM276 512l-168 169l75 75l168 -169zM744 44l-168 169l75 75l168 -169zM744 756l75 -75l-168 -169l-75 75z" />
    <glyph glyph-name="five" unicode="5" horiz-adv-x="926" 
d="M410 612v238h106v-238h-106zM410 -50v238h106v-238h-106zM674 453h239v-106h-239v106zM275 512l-168 169l75 75l168 -169zM743 44l-168 169l75 75l168 -169zM743 756l75 -75l-168 -169l-75 75zM182 44l-75 75l168 169l75 -75zM14 400q0 -4 3 -4q5 0 5 4t-5 4q-3 0 -3 -4z
M16 400q0 2 1 2q2 0 2 -2t-2 -2q-1 0 -1 2z" />
    <glyph glyph-name="six" unicode="6" horiz-adv-x="927" 
d="M410 612v238h107v-238h-107zM410 -50v238h107v-238h-107zM675 453h239v-106h-239v106zM252 453v-106h-238v106h238zM744 44l-168 169l75 75l168 -169zM744 756l75 -75l-168 -169l-75 75zM183 44l-75 75l168 169l75 -75z" />
    <glyph glyph-name="seven" unicode="7" horiz-adv-x="927" 
d="M410 -50v238h107v-238h-107zM675 453h239v-106h-239v106zM252 453v-106h-238v106h238zM276 512l-168 169l75 75l168 -169zM744 44l-168 169l75 75l168 -169zM744 756l75 -75l-168 -169l-75 75zM183 44l-75 75l168 169l75 -75z" />
    <glyph glyph-name="eight" unicode="8" 
d="M15 350q0 144 70 256.5t179 176.5q115 67 251 67q144 0 256.5 -70t176.5 -179q67 -115 67 -251q0 -144 -70 -256.5t-179 -176.5q-115 -67 -251 -67q-144 0 -256.5 70t-176.5 179q-67 115 -67 251zM144 350q0 -40 12 -58t41 -23q40 -1 85 40q94 83 68 290q-2 16 -2 17
q-4 8 0 9.5t13 -1.5q95 -25 180 -99q72 -62 167 -193q41 -57 88 -77q56 -19 76 13q20 31 20 82q0 115 -61 208q-49 74 -130.5 121.5t-182.5 47.5q-68 0 -125 -22q-79 -28 -140 -89.5t-89 -141.5q-2 -15 -9 -28q-12 -51 -11 -96z" />
    <glyph glyph-name="nine" unicode="9" horiz-adv-x="1250" 
d="M131 -40q0 8 -4 32h-13q-8 0 -10.5 7t1 13.5t11.5 6.5h8l-6 54q-3 18 -25 195q-20 164 -34.5 250.5t-43.5 191.5q-1 5 1 8.5t7 6t10 3.5t12.5 2t11.5 2q13 3 28 6q0 10 1 49t1 49q1 12 13 12q14 0 14 -14q-2 -80 -2 -91q21 4 59.5 12.5t65.5 12.5q41 7 56 10
q402 69 794 72q14 0 12 -15q0 -6 -2 -33t-2 -33q14 -1 128 -11q5 0 9 -4.5t3 -9.5l-68 -412l-68 -413l76 -12q10 -2 11 -14.5t-11 -12.5h-3q-8 1 -39 6.5t-39 6.5q-4 -43 -19 -43h-4q-297 75 -600 117q-134 2 -149 2q-19 0 -165 -2v-1q1 -1 1 -2q1 -6 -4 -10.5t-11 -4.5
q-10 0 -12 11zM88 501q-3 71 -3 209q-13 -1 -40 -8q19 -72 43 -201zM1010 -43q1 12 28.5 394.5t33.5 471.5q-473 -5 -960 -107q-2 -52 0 -105q2 -271 32 -533q2 -16 9 -60q40 -2 195 -13.5t179 -12.5q346 -19 483 -35zM355 294q-66 0 -108.5 43.5t-42.5 110.5q0 74 51 126
q51 53 129 53q85 0 132 -59.5t47 -153.5q0 -133 -67 -212.5t-191 -88.5q-30 -2 -57 -2v75q16 -2 52 2q67 6 111 46t55 103h-2q-40 -43 -109 -43zM379 556q-37 0 -59 -29.5t-22 -72.5q0 -40 22.5 -66t59.5 -26q56 0 81 42q5 12 5 26q1 54 -20.5 90t-65.5 36h-1zM387 -23
l469 -50q142 -31 209 -48l3 18q-338 54 -681 80zM730 294q-66 0 -108.5 43.5t-42.5 110.5q0 72 52 126q51 53 129 53q84 0 131 -60t47 -153q0 -133 -67 -212.5t-191 -88.5q-30 -2 -57 -2v75q16 -2 52 2q67 6 111 46t55 103h-1q-40 -43 -110 -43zM754 556q-37 0 -59 -30
t-22 -72q0 -40 22.5 -66t59.5 -26q55 0 81 42q5 12 5 26q1 54 -20.5 90t-65.5 36h-1zM1030 -70q29 -5 43 -6q8 46 63 384l70 425q-80 7 -113 9l-58 -802q0 -5 -4 -9q-1 0 -1 -1z" />
    <glyph glyph-name="colon" unicode=":" horiz-adv-x="864" 
d="M15 -150l417 1000l417 -1000h-369v135l170 85l-13 55l-157 -79v67l98 52l-14 57l-84 -45v87h-92v-157l-86 59l-16 -64l102 -70v-182h-373z" />
    <glyph glyph-name="semicolon" unicode=";" horiz-adv-x="1152" 
d="M15 524q0 13 13 13h176v129q0 14 13 14h98v-514q0 -14 -12 -14h-288v372zM191 235q13 0 13 14v206h-67q-13 0 -13 -14v-206h67zM349 524q0 13 13 13h98v-371q0 -14 -12 -14h-99v372zM349 666q0 14 12 14h99v-69q0 -14 -12 -14h-99v69zM498 524q0 13 13 13h288v-504
q0 -13 -13 -13h-288l1 69q0 14 12 14h176v49h-189v372zM675 235q12 0 12 14v206h-67q-12 0 -12 -14v-206h67zM850 103h176v49h-189v372q0 13 13 13h287v-504q0 -13 -12 -13h-288v69q0 14 13 14zM946 235h67q13 0 13 14v206h-67q-13 0 -13 -14v-206z" />
    <glyph glyph-name="equal" unicode="=" 
d="M192 -31q-79 68 -128 165t-49 216q0 144 70 256.5t179 176.5q115 67 251 67q144 0 256.5 -70t176.5 -179q67 -115 67 -251q0 -207 -145 -352q-57 69 -141 112t-187 43q-113 0 -203.5 -51.5t-146.5 -132.5zM179 494q0 -17 12.5 -29.5t29.5 -12.5q7 0 9 1q143 58 298 58
t298 -58q1 0 4.5 -0.5t4.5 -0.5q17 0 29.5 13t12.5 29q0 25 -23 37q-159 63 -326 63q-171 0 -329 -64q-20 -14 -20 -36zM231 329q7 -13 23 -13q1 0 9 2q126 55 265 55q138 0 267 -56q6 -2 7 -2q16 0 23 13l5 17q0 14 -10 21q-139 62 -292 62q-152 0 -293 -62
q-10 -10 -10 -21zM304 185q108 51 224 51q112 0 219 -48q24 -14 35 12q9 25 -14 38q-108 53 -240 53q-130 0 -244 -55q-18 -10 -11 -35q10 -25 31 -16zM334 -116q80 104 208 104q113 0 193 -86q-103 -52 -220 -52q-95 0 -181 34z" />
    <glyph glyph-name="greater" unicode="&#x3e;" horiz-adv-x="1235" 
d="M1220 350q0 -49 -27.5 -87.5t-68.5 -58.5q0 -195 -260 -303q-46 -21 -68 -27t-79 -15q-59 -9 -93 -9q-118 0 -231 35q-3 3 -72 38q-97 52 -153 116q-57 65 -57 156h-5q-33 17 -59 50l-9 12q-15 27 -19 43.5t-4 52.5q0 63 49 106q50 44 113 44q61 0 105 -36h5
q133 82 335 82l5 4l70 267l242 -36q0 -1 2 -1q1 0 0 1q2 1 14 18l12 16q35 32 82 32q49 0 82.5 -32.5t33.5 -81.5t-34 -84t-82 -35q-55 0 -86 38t-31 97q-2 -1 -97.5 13t-109.5 17h-3l-16 -54l-23 -84q-19 -69 -25 -88v-3l5 -4q77 0 153 -22.5t128 -57.5q1 1 2 1t2 1l16 11
l16 12q3 2 13.5 8t18 7.5t19 3.5t25.5 2q68 0 116 -48.5t48 -116.5zM173 472q-48 0 -86 -41t-38 -90q0 -65 57 -112q5 59 48 116q46 60 101 101q-38 26 -82 26zM151 195q0 -107 111 -189q99 -73 207 -94q78 -14 146 -14q133 0 241 43t177 119h-3q28 35 43 68q13 29 13 73
q0 109 -96 187q-150 122 -373 122q-157 0 -301 -72q-71 -35 -118 -97.5t-47 -145.5zM337 268q0 37 22.5 59.5t59.5 22.5t62 -23t25 -59t-25.5 -60t-61.5 -24t-59 24t-23 60zM608 12q62 0 113 25.5t81 66.5h41q-25 -62 -93 -96q-67 -34 -142 -34q-74 0 -142 34q-69 34 -93 96
h44q25 -44 79 -68t112 -24zM709 268q0 38 23 60t61 22q34 0 58 -24t24 -58t-24 -59t-58 -25q-37 0 -60.5 23.5t-23.5 60.5zM964 736q0 -34 25 -59.5t60 -25.5q36 0 59 24.5t23 60.5q0 34 -24 58t-58 24q-33 0 -59 -24.5t-26 -57.5zM978 455q53 -35 94 -91t57 -121
q59 44 59 96q0 58 -36 100t-92 42q-44 0 -82 -26z" />
    <glyph glyph-name="question" unicode="?" horiz-adv-x="790" 
d="M15 108q0 22 12 64q23 87 87.5 158.5t146.5 102.5q-79 63 -79 161q0 87 62 146q63 60 149 60t149 -60q62 -59 62 -146q0 -97 -77 -160q101 -36 174.5 -124t73.5 -201q0 -93 -73 -106q-3 -10 -13 -26q-7 -18 -30.5 -31.5t-40.5 -17.5l-50 -12q-8 -2 -48.5 -8t-47.5 -6
q-1 0 -7 -1t-7 -1h-120q-53 0 -129 16q-79 17 -89 45q-18 18 -25 42q-25 5 -42 21q-38 15 -38 84z" />
    <glyph glyph-name="at" unicode="@" horiz-adv-x="794" 
d="M207 46q0 2 0.5 10.5t0.5 10.5q-133 69 -180 215q-13 40 -13 56v103q0 87 86 200q87 114 171 160q79 44 187 44q95 0 174 -41q40 -21 66 -57.5t26 -85.5q0 -50 -32 -91q-6 -7 -13 -17t-18 -21q-21 -21 -36 -34q-10 -9 -17 -16h168q2 -96 2 -108q0 -252 -42 -326
q-34 -59 -93.5 -107t-128.5 -71q-39 -15 -56 -15h-84q-2 0 -48 17q-120 52 -120 174zM161 468q0 -84 38 -160q18 -37 51.5 -61.5t77.5 -24.5q13 0 40 15t49 15q14 0 51 -10.5t37 -19.5q0 -21 -26 -21q-130 0 -130 -76q0 -57 41 -87t104 -30q51 0 95.5 18t69.5 48
q42 50 42 164q0 10 -1 55t-1 55q0 45 5 80h-193q-1 -5 -1 -23q0 -7 1 -35t1 -34q0 -34 -8 -56q-3 -1 -17 -1q-46 0 -78.5 31.5t-45.5 75.5q-12 42 -12 89q0 108 55 175q32 38 77 38q11 0 21 -3q-4 -20 -4 -34q0 -36 19 -58.5t53 -22.5t57 23t23 58q0 40 -30.5 69.5
t-70.5 40.5q-41 11 -79 11q-135 0 -223 -85t-88 -219z" />
    <glyph glyph-name="A" unicode="A" horiz-adv-x="890" 
d="M733 328q-2 -77 38 -132.5t104 -79.5q-69 -148 -150 -225q-41 -39 -91 -41q-31 0 -76 22q-46 20 -91 20h-4q-47 0 -95 -21t-78 -21q-84 2 -172 137q-58 89 -83 184q-20 78 -20 144q0 24 1 36q13 156 140 231q59 34 114 34q39 0 102 -22q60 -21 90 -21q29 0 86 21
q60 22 105 22q112 0 192 -102q-45 -25 -76.5 -67t-35.5 -95v-24zM431 609q-3 15 -3 30q0 64 53 129q25 31 67 54.5t85 27.5q2 -20 2 -30q0 -68 -50 -132q-26 -33 -66.5 -56.5t-83.5 -22.5h-4z" />
    <glyph glyph-name="B" unicode="B" horiz-adv-x="1026" 
d="M15 534q0 130 93 223t223 93h221q64 -8 138 -57q74 -50 105 -115q22 -45 29 -108q9 -69 26 -85q13 -13 71 -15t65 -7l14 -11l8 -17l3 -14l-2 -256q-1 -130 -93 -223q-91 -92 -222 -92h-363q-131 0 -223 92q-93 93 -93 223v369zM274 170q0 -25 18 -42.5t43 -17.5h356
q25 0 42.5 17.5t17.5 42.5t-17.5 42.5t-42.5 17.5h-356q-25 0 -43 -17.5t-18 -42.5zM274 532q0 -25 18 -43t43 -18h175q25 0 42.5 18t17.5 43t-17.5 42.5t-42.5 17.5h-175q-25 0 -43 -17.5t-18 -42.5z" />
    <glyph glyph-name="C" unicode="C" 
d="M15 350q0 206 148 354q144 146 351 146q208 0 357 -146q71 -71 107 -162q37 -87 37 -192q0 -210 -143 -351q-73 -71 -166 -111q-96 -38 -192 -38q-204 0 -352 148q-147 147 -147 352zM105 350q0 -169 123 -288q61 -61 133 -89q71 -31 155 -31q164 0 292 121
q117 114 117 287q0 86 -31 157q-30 77 -88 132q-120 121 -290 121q-171 0 -288 -120q-123 -123 -123 -290zM230 350q0 68 40.5 111.5t106.5 43.5q93 0 133 -72l-67 -35q-10 23 -27 31q-15 9 -29 9q-67 0 -67 -88q0 -38 17 -63t50 -25q44 0 62 42l62 -31q-46 -78 -132 -78
q-69 0 -109 42t-40 113zM519 350q0 68 40.5 111.5t106.5 43.5q93 0 132 -72l-66 -35q-19 40 -56 40q-67 0 -67 -88q0 -40 16.5 -64t50.5 -24q43 0 61 42l63 -31q-46 -78 -131 -78q-70 0 -110 42t-40 113z" />
    <glyph glyph-name="D" unicode="D" 
d="M15 350q0 144 70 256.5t179 176.5q115 67 251 67q144 0 256.5 -70t176.5 -179q67 -115 67 -251q0 -144 -70 -256.5t-179 -176.5q-115 -67 -251 -67q-144 0 -256.5 70t-176.5 179q-67 115 -67 251zM99 370q0 -2 -0.5 -10t-0.5 -10q0 -156 105 -275q47 92 152 179
q102 84 203 107q-9 22 -29 63q-171 -55 -372 -55q-45 0 -58 1zM176 451q167 0 317 45q-78 137 -167 225q-77 -39 -134 -109.5t-81 -158.5q30 -2 65 -2zM515 -67q75 0 147 28q-19 170 -78 331q-93 -20 -186 -101t-138 -170q112 -88 255 -88zM576 526q136 57 205 145
q-115 96 -266 96q-49 0 -102 -14q89 -92 163 -227zM646 374q69 7 161 7q61 0 123 -3q-7 135 -98 242q-64 -97 -220 -165q12 -25 34 -81zM671 304q51 -149 69 -304q75 49 126.5 128t62.5 176q-82 5 -133 5q-47 0 -125 -5z" />
    <glyph glyph-name="E" unicode="E" horiz-adv-x="867" 
d="M15 541q0 88 88 88h94q15 0 26 11t11 26q0 29 -1 44v59q0 57 62 75q11 6 53 6h19q65 -3 100.5 -18.5t42.5 -60.5q17 1 48 1q55 0 123.5 -9.5t94.5 -19.5q43 -14 53 -67q6 -35 14.5 -164.5t8.5 -192.5q0 -44 -3 -71q-17 -173 -43 -254q-24 -74 -56 -111q-23 -27 -78 -31
q-26 -2 -59 -2q-107 0 -145 26t-38 106q0 90 42 109q31 14 87 14h28q3 0 4.5 -1.5t1.5 -5t-1 -6.5t-2.5 -6.5t-1.5 -5.5q-2 -10 -2 -13q0 -2 2 -15t1 -16q-1 -2 -7 -2h-20q-20 0 -20 -2q0 -1 -4 -1.5t-8 -1.5t-4 -3t-6 -7t-4 -9q2 -6 -1 -11q0 -21 11 -37q6 -9 40 -9h33
q57 0 73 13t16 64q0 75 -18 102t-57 32q-85 9 -119 20q-53 20 -53 119q0 2 -3 2q-2 0 -2 -2q0 -67 -18 -120l-8 -24q-10 -24 -37 -26h-6q-22 0 -54 8q-131 17 -198 47q-23 10 -37 40q-19 39 -36 128q-19 98 -23 134q-4 29 -4 51zM89 676q-34 0 -68 -16v2l183 180q0 1 1 1
q-14 -28 -14 -54q0 -49 1 -103q0 -10 -10 -10h-93zM589 370q21 3 46 3q45 -1 81 -18q0 86 -61 87h-3q-54 0 -63 -72z" />
    <glyph glyph-name="F" unicode="F" horiz-adv-x="1082" 
d="M88 527q73 73 177 73t177 -73t73 -177t-73 -177t-177 -73t-177 73t-73 177t73 177zM567 350q0 104 73 177t177 73t177 -73t73 -177t-73 -177t-177 -73t-177 73t-73 177z" />
    <glyph glyph-name="G" unicode="G" horiz-adv-x="676" 
d="M332 -150q-76 0 -145.5 17.5t-120.5 60.5t-51 104q0 87 89 155t215 68h54q-42 41 -42 86q0 30 16 58q-7 -1 -29 -1q-103 0 -170 65q-66 65 -66 160q0 92 82 159q83 68 187 68h310l-69 -50h-98q45 -17 72.5 -66.5t27.5 -112.5q0 -93 -88 -162q-36 -28 -48 -46
q-11 -17 -11 -42q0 -19 27 -48q30 -32 54 -49q60 -42 84 -88q24 -45 24 -113q0 -91 -82 -157t-222 -66zM186 -52q60 -49 145 -49q118 0 173 44q53 43 53 117q0 47 -37 88q-4 4 -40 31q-35 25 -51 35q-39 12 -77 12h-4q-86 0 -153 -47q-68 -48 -68 -114q0 -69 59 -117z
M193 624q10 -72 57.5 -132.5t112.5 -61.5h4q52 0 84.5 45t32.5 106q0 100 -62 168q-50 56 -109 57h-4q-53 0 -85.5 -43.5t-32.5 -105.5q0 -11 2 -33z" />
    <glyph glyph-name="H" unicode="H" horiz-adv-x="909" 
d="M15 217q0 146 95 253q106 118 266 118q68 0 125 -21q-22 -46 -27 -86q-45 19 -98 19q-111 0 -191 -83q-80 -86 -80 -202q0 -80 37.5 -144t97.5 -99q62 -36 136 -36q78 0 139 38t95 99q36 66 36 142q0 64 -22 114q45 9 85 34q27 -67 27 -146q0 -148 -101 -257
q-101 -110 -259 -110q-159 0 -260 110t-101 257zM295 -36l16 7q35 18 95 80q62 64 108 207q35 110 35 269q-2 74 -5 112l5 13q5 14 6 35v7q0 31 -7 50t-25 42q-24 28 -63 48l11 -17q10 -15 31 -67q23 -55 44 -119l9 -25q19 -60 28 -167q2 -26 2 -40q0 -100 -37 -206
q-25 -69 -77.5 -129.5t-119.5 -103.5zM570 601q5 41 23 64l18 25q10 12 37.5 25.5t49.5 19.5l21 6q32 7 64 33t46 53l13 23q56 -78 52 -186q0 -34 -6 -59l-11 -45q-10 -27 -30.5 -56t-39.5 -41l-15 -11q-35 -20 -67 -20l-109 53q141 78 198 167q12 20 14 31l2 10
q-36 -81 -110 -125q-59 -37 -108 -51l-18 -5q-25 43 -25 79q0 7 1 10z" />
    <glyph glyph-name="I" unicode="I" horiz-adv-x="519" 
d="M15 -117q101 6 130 27q30 21 30 107v666q0 82 -30 106t-130 28v28h489v-28q-103 -5 -131 -28q-30 -24 -30 -106v-666q0 -86 30 -107t131 -27v-28h-489v28z" />
    <glyph glyph-name="J" unicode="J" horiz-adv-x="1265" 
d="M817 565q55 0 88 -23t33 -71q0 -32 -16 -71q-16 -22 20 -31q63 -20 106.5 -62.5t43.5 -106.5q0 -58 -41 -120q-92 -137 -289 -197q-108 -33 -229 -33q-137 0 -252.5 41t-188.5 113q-77 77 -77 174q0 162 184 347q117 115 236 162q57 23 97 23q45 0 71.5 -26.5t26.5 -72.5
q0 -31 -12 -72q-4 -12 2 -17t17 -1l10 4q95 40 170 40zM139 148q0 -70 51 -123.5t126 -79t158 -25.5q190 0 315 100q92 75 92 165q0 70 -51.5 123t-126.5 78.5t-158 25.5q-119 0 -217.5 -42t-150.5 -113q-38 -53 -38 -109zM287 127q0 35 18 70q24 49 77 82.5t118 33.5
q115 0 163 -89q17 -32 17 -66q0 -32 -15 -65q-32 -71 -109 -104q-42 -19 -88 -19q-60 0 -104.5 27t-63.5 71q-13 27 -13 59zM354 100q0 -24 17 -39t42 -15q43 0 67 37q10 16 10 32q0 24 -16.5 39t-42.5 15q-44 0 -66 -36q-11 -17 -11 -33zM497 166q6 -15 23 -15q13 0 22 10
t5 23q-5 14 -22 13.5t-25 -13.5q-3 -6 -3 -12v-6zM864 749q-20 0 -33.5 14t-13.5 34q0 17 11 29.5t26 16.5q32 7 68 7q50 0 100 -15q82 -27 142.5 -93t78.5 -153q7 -32 7 -68q0 -53 -16 -98v-1q-11 -32 -45 -32q-21 0 -34 13t-13 33q0 5 2 15v1q11 36 11 70q0 92 -60 157
q-69 76 -172 76q-21 0 -49 -5q-3 -1 -10 -1zM858 630q-1 3 -1 10q0 43 69 43q55 0 98.5 -37.5t54.5 -90.5q3 -17 3 -33q0 -31 -10.5 -53.5t-35.5 -22.5q-18 0 -29.5 11t-11.5 29q0 7 3 20t3 19q0 27 -21 50q-23 26 -54 26q-4 0 -14 -1.5t-15 -1.5q-14 0 -25 9.5t-14 22.5z
" />
    <glyph glyph-name="K" unicode="K" horiz-adv-x="1116" 
d="M15 -150v1000h257v-371h229l103 149l154 222h286l-328 -477q0 -13 96 -143l193 -256l96 -124h-343l-286 400h-200v-400h-257z" />
    <glyph glyph-name="L" unicode="L" horiz-adv-x="1066" 
d="M15 730q0 51 36 83t90 32t89 -32.5t35 -85.5q0 -50 -36 -81.5t-90 -31.5h-1q-53 0 -88 32.5t-35 83.5zM28 523h222v-668h-222v668zM373 -145h222v373q0 33 8 54q34 81 114 81q112 0 112 -151v-357h222v383q0 138 -65.5 219.5t-189.5 81.5q-129 0 -201 -111v-2h-1l1 2v95
h-222q2 -42 2 -199q0 -67 -2 -469z" />
    <glyph glyph-name="M" unicode="M" horiz-adv-x="1371" 
d="M90 325q0 -5 2.5 -26t2.5 -25l-1 -12q-30 -15 -52 -15q-8 0 -10 1q-17 57 -17 142q0 11 2 105q26 8 48 8h18q18 -25 40 -70q19 -40 31 -61q2 5 9 39.5t9 39.5q19 63 26 77q10 18 20 31q32 -5 46 -5q8 0 11 1q24 -54 45 -163q19 -98 39 -155q-3 0 -7 2q-5 0 -26 -6t-22 -6
q-38 94 -62 203q-15 -26 -15 -89q0 -61 -11 -88l-5 2q-5 0 -22 -2t-21 -2h-18q-28 50 -57 89q-3 -6 -3 -15zM460 206q-45 0 -67.5 29.5t-22.5 78.5q0 67 36 114q20 27 47 27q5 0 27 -5.5t24 -5.5q9 -40 9 -81q0 -28 -6 -55q-6 2 -37.5 4t-37.5 4q-5 -22 -5 -37
q0 -22 10.5 -37.5t29.5 -15.5q5 0 26 5t26 5q17 0 23 -14q-41 -16 -82 -16zM436 343q2 0 8 -2t7 -2l7 3q2 18 2 22q0 15 -5 40q-23 -26 -27 -62zM586 281q0 -21 17 -37t39 -16q26 0 41 23q18 -6 21 -17q-22 -21 -63 -21q-36 0 -70 20q-33 19 -33 55q0 124 78 182
q31 -3 60 -23q0 -5 -6.5 -60.5t-6.5 -71.5v-14q-26 -2 -29 -2q-5 0 -43 5q-5 -13 -5 -23zM620 413l-10 -23q-7 -18 -11.5 -32t-4.5 -27q4 -6 14 -6h9q9 19 9 49q0 14 -6 39zM770 219q0 12 -3.5 61t-3.5 57q-6 1 -32 3q-24 1 -38 10q-2 26 23 26q3 0 17.5 -1t17.5 -1
q3 15 3 31q0 17 -7.5 87t-7.5 86q0 45 10 72q4 -3 27 -6q22 -3 40 -24q-6 -26 -6 -67q0 -8 3 -66t3 -76q0 -25 -1 -34h6q11 0 11 19q0 6 4 6q9 0 18 -8l38 -38q-9 -8 -40 -9q-25 -1 -39 -4q-1 -8 -1 -36q0 -16 1.5 -52t1.5 -52q-4 0 -22.5 -1.5t-22.5 -2.5v20zM1090 384
q0 -2 0.5 -10t0.5 -9q0 -13 -2 -24t-7.5 -23t-8.5 -18t-11 -19l-11 -16q-14 -11 -34 -42q-20 -7 -38 -7q-71 0 -71 142q0 8 2 58q10 -1 20 -5t22.5 -11t16.5 -9l-1 -27q0 -59 9 -116q18 7 29.5 21t16.5 38t6.5 41.5t2.5 50.5v11q2 -1 9 -1q19 -1 49 -25zM1132 260q0 5 1 9
q14 128 41 175q13 23 36.5 40t52.5 17q34 0 76 -24q17 -39 17 -75q0 -68 -48 -120.5t-111 -66.5q-2 -42 -2 -48q0 -73 18 -117q-10 2 -37 2q-12 0 -22 2q-8 19 -16 96q-7 74 -30 100q7 5 24 10zM1198 275q37 9 64.5 46.5t27.5 80.5q0 30 -15 56q-19 -17 -37 -51.5t-26 -64.5
q-8 -36 -14 -67z" />
    <glyph glyph-name="N" unicode="N" horiz-adv-x="1250" 
d="M15 654q20 16 50 16h9q7 0 29 -1t27 -1h16l30 2h21h23q32 -3 45 -21q10 -14 23 -45q38 -88 104 -184q26 -39 35 -46q1 -1 5.5 -4.5t5.5 -4.5t6 -3.5t7.5 -2t9.5 0.5q28 4 31 117q1 13 1 35q0 74 -15 102q-11 19 -40 30q-19 8 -23 10q14 29 48.5 37.5t97.5 8.5h53
q51 0 53 -4l22 -5l19 -9q21 -9 13 -14q10 -19 11 -42q0 -9 1 -14q0 -10 -3.5 -54.5t-3.5 -49.5q-3 -22 -3 -46q0 -77 32 -99q7 1 13.5 3.5t10 4t9.5 8t7.5 8t7.5 10t7 9.5q59 79 105 177l9 23q1 3 4 8l7 18q5 11 9 17t4 3q0 -8 15 13q15 7 38 7h9q12 0 48 -2t45 -2
q8 0 28.5 1.5t36 2t32.5 -1.5t26 -10t9 -22q0 -28 -35 -87q-29 -48 -80 -111q-49 -60 -68 -88q-18 -28 -17 -49q0 -16 23 -42l6 -7l12 -10l7 -7q74 -68 112 -117q40 -52 40 -75q0 -33 -51 -41q-23 -4 -53 -4q-13 0 -40 2.5t-40 2.5q-23 0 -45 -5h-6q-64 10 -139 94
q-3 4 -19 23t-20 23q-27 27 -50 23q-36 -7 -40 -89q-2 -34 -9 -48q-13 -24 -79 -24q-122 0 -208 44q-61 30 -100 68q-40 39 -81 92q-108 137 -208 344l-6 12q-5 11 -7 14.5t-6 13t-5.5 15t-3.5 14.5t-3 17.5t-1 17.5z" />
    <glyph glyph-name="O" unicode="O" 
d="M515 850q80 0 145 -35t105 -92q18 2 31 2q91 0 155 -64t64 -155q0 -90 -64 -154t-155 -64q-43 0 -78 13q-74 -65 -182 -74l-21 -65l63 -62l-188 -188l62 188l-62 62l68 69q-81 15 -146 70q-35 -13 -78 -13q-91 0 -155 64t-64 154q0 91 64 155t155 64q13 0 31 -2
q40 57 105 92t145 35zM78 506q0 -64 46 -110t110 -46q51 0 90 29q76 -91 191 -91l43 5q89 15 148 86q39 -29 90 -29q64 0 110 46t46 110t-46 110t-110 46q-33 0 -58 -11q-32 60 -89.5 98.5t-133.5 38.5t-133.5 -38.5t-89.5 -98.5q-25 11 -58 11q-64 0 -110 -46t-46 -110z
" />
    <glyph glyph-name="P" unicode="P" horiz-adv-x="1080" 
d="M980 439q0 6 -6 33.5t-5 35.5v4h1q26 0 61 -51q34 -52 34 -81q0 -33 -29 -60q-6 -6 -29.5 -15.5t-35.5 -12.5l-36 -8q-1 0 -4 -0.5t-4 -1.5v-26q0 -173 -77 -253l25 -25q2 -1 19 -8.5t26 -12t20 -12.5t14 -15q-64 -51 -132 -51q-33 0 -75 17q-87 -37 -180 -37
q-119 0 -234 61q-31 -7 -44 -13t-37 -24q-19 -13 -37 -23t-28 -10q-3 18 -3 37q0 79 53 126q-61 100 -62 257l-7 1h-3q-28 1 -76 -17q-46 -17 -64 -19q-2 0 -10 2q10 138 168 173q11 82 43 192q29 101 71 146q44 45 115.5 73.5t150.5 28.5q86 0 164 -39t117 -110
q19 -36 42 -131t30 -154q15 -6 34 -6q30 0 30 29zM254 117q23 -80 68 -121.5t127 -63.5q59 -17 117 -17q68 0 146 28t119 72q68 74 68 257q0 225 -92 379q-2 4 -5.5 9.5t-4.5 8t-3.5 6t-4.5 5t-4.5 4.5t-6.5 5l-8 5q-14 8 -32 8q-50 0 -107 -61q-77 47 -140 47
q-61 0 -105.5 -43.5t-69.5 -104.5q-69 -166 -69 -396q0 -14 7 -27zM428 551q0 22 15.5 37.5t36.5 15.5q22 0 37.5 -15.5t15.5 -37.5t-15.5 -37t-37.5 -15q-21 0 -36.5 15t-15.5 37zM508 569q0 13 -12 13t-12 -13q0 -12 12 -12t12 12zM578 509l2 2l-1 -3zM635 566l51 -52
q-21 -7 -50 -7q-31 0 -53 7zM585 492q30 -5 50 -5q19 0 49 5l-49 -49zM690 508v3l1 -2zM717 551q0 22 15.5 37.5t37.5 15.5t37.5 -15.5t15.5 -37.5t-15.5 -37t-37.5 -15t-37.5 15t-15.5 37zM773 569q0 -5 3.5 -8.5t8.5 -3.5q13 0 13 12q0 13 -13 13q-12 0 -12 -13z" />
    <glyph glyph-name="Q" unicode="Q" horiz-adv-x="893" 
d="M15 825q121 21 297 21q138 0 233.5 -23t167.5 -78q165 -125 165 -370q0 -260 -161 -395q-149 -126 -451 -126q-139 0 -251 14v957zM235 30q17 -4 77 -4h4q159 0 244 89t85 252q0 151 -80 230.5t-230 79.5q-65 0 -100 -9v-638z" />
    <glyph glyph-name="R" unicode="R" 
d="M15 -16q0 55 39 94t94 39t94 -39t39 -94t-39 -94t-94 -39t-94 39t-39 94zM15 510q189 0 338 -92.5t233 -236.5q89 -152 89 -331h-192q0 194 -137 331q-138 138 -331 138v191zM15 658v192q211 0 394.5 -82t312.5 -211t211 -312.5t82 -394.5h-192q0 171 -66.5 320
t-170.5 252q-104 104 -252 170t-319 66z" />
    <glyph glyph-name="S" unicode="S" horiz-adv-x="1016" 
d="M95 770q80 80 193 80q78 0 145 -42q34 7 80 7q195 0 333 -138t138 -332q0 -46 -11 -101q28 -57 28 -121q0 -113 -80 -193t-193 -80q-67 0 -129 32q-48 -8 -86 -8q-194 0 -332 138t-138 333q0 47 9 94q-37 64 -37 138q0 113 80 193zM236 211q0 -41 30 -85
q71 -104 246 -104q104 0 184 45q41 22 66 63t25 95q0 57 -29 97.5t-74 58.5q-83 34 -191 55q-103 19 -103 71q0 33 36 49q35 16 75 16q76 0 104 -42q5 -7 15 -24.5t16.5 -27t21 -18t32.5 -8.5q27 0 47.5 19t20.5 46t-15 54q-29 54 -95 80q-63 25 -138 25q-96 0 -172 -38
q-89 -45 -89 -143q0 -64 38.5 -105t98.5 -58q63 -18 114 -29q58 -12 98 -33t40 -59q0 -28 -23 -48.5t-51 -27.5q-25 -7 -56 -7q-76 0 -103 38q-21 28 -41 70q-18 37 -59 37q-28 0 -48.5 -17.5t-20.5 -44.5z" />
    <glyph glyph-name="T" unicode="T" horiz-adv-x="1260" 
d="M15 -37q30 -3 60 -3q176 0 314 108q-84 1 -148.5 51.5t-87.5 123.5q17 -4 47 -4q36 0 67 9q-85 16 -144 85t-59 162v3q52 -29 115 -31q-49 32 -81 87t-32 123t35 127q89 -112 223 -183.5t297 -80.5q-7 31 -7 58q0 104 74 178t179 74q109 0 184 -80q85 18 160 62
q-28 -91 -110 -140q75 9 144 40q-48 -75 -125 -131v-33q0 -212 -120 -396q-131 -202 -346 -280q-117 -42 -252 -42q-208 0 -387 113z" />
    <glyph glyph-name="U" unicode="U" horiz-adv-x="893" 
d="M21 285q4 53 38 86.5t87 36.5q112 5 301 5t301 -5q53 -3 87 -36.5t38 -86.5q5 -100 5 -162t-5 -162q-4 -53 -38 -86.5t-87 -36.5q-112 -5 -301 -5t-301 5q-53 3 -87 36.5t-38 86.5q-6 108 -6 162t6 162zM143 264v-326h59v326h61v55h-181v-55h61zM147 867h60l38 -152h4
l36 152h60l-46 -148l-13 -39l-8 -28l-2 -8v-158h-59v151q-2 12 -6 25.5t-9.5 28.5t-7.5 23zM299 -66q32 0 61 35v-31h52v281h-52v-214q-21 -21 -31 -21q-14 0 -14 19v216h-52v-237q0 -48 36 -48zM418 479q-35 0 -55.5 21.5t-20.5 56.5v146q0 33 21.5 52t56.5 19
q33 0 53.5 -20t20.5 -53v-145q0 -36 -20 -56.5t-56 -20.5zM418 726q-9 0 -15.5 -5.5t-6.5 -14.5v-156q0 -23 22 -23q23 0 23 25v153q0 9 -7 15t-16 6zM516 -62v21q19 -25 50 -25q47 0 47 62v156q0 71 -51 71q-25 0 -46 -27v123h-53v-381h53zM516 167q11 11 22 11
q22 0 22 -28v-148q0 -24 -19 -24q-15 0 -25 13v176zM539 767h52v-215q0 -19 14 -19q13 0 31 21v213h52v-281h-52v31q-29 -35 -61 -35q-36 0 -36 48v237zM653 17q0 -39 19.5 -63t56.5 -24q78 0 78 87v21h-54v-11v-12q0 -4 -0.5 -11t-2 -10.5t-4 -7.5t-6.5 -5.5t-10 -1.5
q-23 0 -23 40v53h100v72q0 82 -75 82q-36 0 -57.5 -23t-21.5 -59v-127zM707 116v30q0 31 23 31t23 -31v-30h-46z" />
    <glyph glyph-name="V" unicode="V" horiz-adv-x="1176" 
d="M15 578q140 166 278 236q35 19 48 22l17 4q16 2 24 2q23 0 40.5 -8t30 -24t19.5 -29t16 -35q20 -49 39 -159.5t26 -139.5q31 -125 51 -177q20 -53 42 -53q24 0 66 55q44 59 94 152q26 49 26 91t-20 67t-57 25q-34 0 -83 -26q22 130 134 209q86 60 174 60q123 0 163 -91
q18 -37 18 -88q0 -29 -6 -61q-18 -100 -69.5 -207t-113.5 -189q-52 -69 -123.5 -145t-132.5 -127q-46 -38 -90 -68q-42 -24 -78 -24q-68 0 -126 69q-24 29 -38 57q-20 41 -98 298q-80 262 -96 281q-3 6 -16 8.5t-26 0.5q-34 -7 -86 -47z" />
    <glyph glyph-name="W" unicode="W" horiz-adv-x="1263" 
d="M120 328q28 16 78 29t91 15l34 1q53 0 104 -10q99 -19 144 -61l-104 -370q-28 22 -70.5 42t-77.5 24l-26 4q-35 3 -65 3q-54 0 -118.5 -13.5t-94.5 -34.5zM246 805q28 16 79 29.5t91 14.5l33 1q54 0 104 -10q99 -19 144 -61l-104 -371q-28 22 -70.5 42t-77.5 24l-26 4
q-35 3 -64 3q-55 0 -119.5 -13t-94.5 -34zM676 292q30 -22 72.5 -42t76.5 -24l25 -4q34 -3 65 -3q54 0 119 13t94 34l-104 -371q-28 -16 -79 -28.5t-91 -14.5l-33 -2q-54 0 -104 10q-100 19 -145 61zM692 396l104 370q30 -22 72.5 -42t76.5 -24l25 -4q34 -3 65 -3
q54 0 118.5 13t94.5 34l-104 -370q-29 -16 -80 -29.5t-91 -14.5l-33 -2q-72 0 -144 20.5t-104 51.5z" />
    <glyph glyph-name="X" unicode="X" horiz-adv-x="970" 
d="M15 152l173 286l-130 229h219l130 -229l-173 -286h-219zM377 242l346 608h232l-345 -608l222 -392h-232z" />
    <glyph glyph-name="Y" unicode="Y" horiz-adv-x="1405" 
d="M456 17q8 3 8 17v192q0 12 -11 25l-287 344h-111l-19 10l-2 2q-1 1 -13 15l-6 19v8q1 5 10 7h492q6 0 6 -7v-14q0 -15 -10 -15l-68 -21q-11 -5 -22 -4h-41l228 -291l207 195h-115l-18 7l-23 23l-2 4q-9 9 -7 22l7 6h438q4 0 6 -6v-14q0 -11 -6 -18l-17 -19q-8 -7 -18 -7
h-133q-236 -221 -267 -252q-9 -9 -7 -14v-202q0 -15 9 -15h146q7 0 7 -7v-57h-516v55q0 9 10 9q30 3 142 3h3zM1205 750l185 -7l-83 -567l-61 3zM1218 -13l4 110l110 -4l-4 -110z" />
    <glyph glyph-name="Z" unicode="Z" 
d="M841 760q72 0 123 -51t51 -123q0 -65 -47 -117q47 -59 47 -133q0 -90 -64 -154t-155 -64q-43 0 -78 13q-80 -71 -193 -74l-10 -19l63 -63l-188 -125l62 125l-62 63l45 29q-73 20 -123 64q-35 -13 -78 -13q-91 0 -155 64t-64 154q0 91 64 155t155 64q13 0 31 -2q1 4 4 4
q-4 16 -4 29q0 72 51 123t123 51h13q72 90 188 90t188 -90h13zM78 336q0 -64 46 -110t110 -46q51 0 90 29q72 -88 187 -91l47 5q89 15 148 86q39 -29 90 -29q64 0 110 46t46 110t-45.5 110.5t-110.5 46.5l-25 -2q-14 -2 -33 -10q-32 60 -89.5 98.5t-133.5 38.5
q-104 0 -178 -77q-27 -27 -41 -54q-2 -4 -4 -6q-27 12 -58 12q-64 0 -110 -46.5t-46 -110.5zM333 621q83 59 182 59q80 0 145 -35t105 -92q18 2 31 2q70 0 129 -41q27 32 27 72q0 47 -32.5 79.5t-78.5 32.5q-21 0 -43 -8q-20 42 -62 70t-96 28t-96 -28t-62 -70q-22 8 -43 8
q-38 0 -66 -22t-40 -55z" />
    <glyph glyph-name="bracketleft" unicode="[" horiz-adv-x="1028" 
d="M15 327q0 79 24 159.5t61 140.5q61 102 182 163q120 60 249 60q137 0 255 -85t177 -198q50 -86 50 -214q0 -154 -73 -268.5t-190 -174.5q-122 -62 -270 -60q157 282 199 348q5 11 17.5 29t21 35t11.5 35q6 24 6 48q0 81 -48 142l275 81q-333 0 -428 -1q-5 1 -22 1
q-100 0 -166 -74q-25 -28 -42 -68l-204 201l198 -341q18 -68 77.5 -115.5t136.5 -47.5q16 0 33 3l-66 -276q-122 0 -228 73.5t-170 173.5q-66 102 -66 230zM327 346q0 -76 54.5 -131t130.5 -55t130.5 55t54.5 131t-54.5 130.5t-130.5 54.5t-130.5 -54.5t-54.5 -130.5z" />
    <glyph glyph-name="bracketright" unicode="]" horiz-adv-x="1067" 
d="M15 638q0 1 3 19l339 -290l-338 -325q-4 12 -4 20v576zM60 697q8 3 17 3h913q9 0 18 -3l-340 -291l-67 -54l-67 -55l-67 55l-67 54zM402 330l132 -107l132 107l341 -327q-7 -3 -17 -3h-913q-9 0 -16 3zM711 367l338 290q3 -9 3 -19v-576q0 -10 -3 -20z" />
    <glyph glyph-name="asciicircum" unicode="^" horiz-adv-x="1136" 
d="M40 212q-25 0 -25 25v151q0 10 7.5 17.5t17.5 7.5h265l-115 -201h-150zM137 -7l66 -38zM149 56l304 528q13 21 34 9l65 -37q9 -5 12 -14.5t-2 -20.5l-303 -528q-5 -8 -14.5 -11t-20.5 2l-65 38q-9 4 -12 15q-3 10 2 19zM570 413h67l94 -201h-276zM533 837q4 35 41 -19
q24 -34 72 -116l66 -112q36 -58 72 -123l90 -169q44 -83 44 -84q11 -19 -2 -36t-31 -24q-21 -9 -25 -9.5t-29 7.5q-29 15 -190 393q-51 111 -85 197q-14 34 -21 71q-3 16 -2 24zM1121 237q0 -10 -7.5 -17.5t-17.5 -7.5h-133q-5 18 -8 23l-24 46l-35 67l-26 48q-7 14 -9 17
h235q10 0 17.5 -7.5t7.5 -17.5v-151zM887 112l37 19q12 5 22.5 1t14.5 -13l31 -60q12 -24 -10 -39l-27 -16q-12 -5 -22 -2t-16 12l-40 62q-6 10 -3 21t13 15zM950 -48q0 6 1 10t1.5 6.5t2 5.5t2.5 4t4.5 4t5.5 5l24 9q62 12 72 -70q3 -35 -1 -76q-5 13 -44 30q-41 18 -55 38
q-13 17 -13 34z" />
    <glyph glyph-name="underscore" unicode="_" horiz-adv-x="1116" 
d="M15 175v350h140v-207h805v207h141v-350h-1086z" />
    <glyph glyph-name="grave" unicode="`" 
d="M16 311q0 3 -0.5 10t-0.5 10q0 148 70 265.5t179 183.5q117 70 251 70q144 0 257 -73t176 -185q67 -119 67 -261q0 -3 -0.5 -10t-0.5 -10q-7 207 -152 353q-144 145 -347 145t-347 -145q-145 -146 -152 -353zM199 312q0 2 -0.5 10t-0.5 10q0 136 93 232q94 97 224 97
t224 -97q93 -96 93 -232q0 -2 -0.5 -10t-0.5 -10q-7 129 -99 219t-217 90t-217 -90t-99 -219zM364 137q0 98 34 131q23 23 51 28q21 4 66 4q71 0 95 -14q31 -17 41 -47q15 -45 15 -102q0 -121 -44 -203q-45 -84 -107 -84t-107 84q-44 82 -44 203zM411 417q0 44 30.5 76
t73.5 32t73.5 -32t30.5 -76t-30.5 -76t-73.5 -32t-73.5 32t-30.5 76z" />
    <glyph glyph-name="a" unicode="a" horiz-adv-x="1130" 
d="M33 75q250 -145 544 -145q213 0 401 79q29 13 38 0q8 -11 -6 -22q-85 -61 -202 -99t-243 -38q-313 0 -544 208q-6 4 -6 10q0 2 2 6q5 9 16 1zM494 177q-80 0 -128 49.5t-48 132.5q0 137 127 192q64 28 221 41v17q0 63 -14 86q-21 30 -66 30h-8q-34 -3 -57.5 -22
t-30.5 -49q-5 -20 -20 -23l-115 14q-17 5 -17 18q0 4 1 7q16 88 83 132q66 43 156 48h25q154 0 210 -101q1 -1 15 -49q4 -16 4 -54v-242q0 -10 1 -19.5t2 -16t5 -15t5.5 -12.5t7 -12.5t7.5 -10.5l8 -12q8 -9 9 -11q6 -9 6 -16q0 -8 -8 -14l-90 -78q-13 -9 -29 -2
q-34 30 -54 59q-12 17 -14 19q-55 -61 -110 -76q-33 -10 -84 -10zM490 379q0 -38 19 -62t53 -24q2 0 8 1t8 1q37 10 61.5 47.5t26.5 84.5v46v25q-56 0 -88 -8q-88 -25 -88 -111zM910 57q1 3 6 8q49 32 122 34q19 2 44 -4.5t29 -11.5t4 -18v-7q0 -35 -19 -82q-20 -50 -53 -77
q-4 -4 -9 -4q-10 0 -7 12q37 86 37 121q0 12 -4 16q-10 12 -56 12q-25 0 -86 -8q-4 0 -7 1.5t-2 4.5q0 2 1 3z" />
    <glyph glyph-name="b" unicode="b" horiz-adv-x="1342" 
d="M15 470q0 55 38.5 94t93.5 39q48 0 84.5 -30.5t45.5 -73.5l502 -202q31 19 68 19q1 0 7 -0.5t7 -0.5l110 159q1 72 53 124t125 52t125.5 -52t52.5 -126t-52.5 -126t-125.5 -52l-170 -124q-5 -50 -42.5 -85t-89.5 -35q-49 0 -85 30.5t-45 74.5l-502 201q-31 -19 -68 -19
q-55 0 -93.5 39t-38.5 94zM50 470q0 -40 28.5 -68.5t68.5 -28.5q5 0 21 2l-41 16v1q-46 21 -46 70q0 25 13 44t33 28q15 7 31 6q12 0 27 -5v1l49 -20q-28 52 -87 52q-40 0 -68.5 -29t-28.5 -69zM916 190q0 -34 -22 -56t-56 -22q-12 0 -25 4t-31.5 12t-21.5 9q28 -52 87 -52
q40 0 69 29t29 69t-29 68.5t-69 28.5q-11 0 -21 -2l40 -16q21 -8 35.5 -27t14.5 -45zM1030 472q0 -49 35 -84t84 -35t84.5 35t35.5 84t-35.5 84t-84.5 35t-84 -35t-35 -84zM1055 473q0 -40 27.5 -68t67.5 -28q39 0 67 28.5t28 67.5t-28 67t-67 28t-67 -28t-28 -67z" />
    <glyph glyph-name="c" unicode="c" horiz-adv-x="1138" 
d="M15 202q0 105 73 178q74 74 177 74l1 -1q0 1 -0.5 6t-0.5 7q0 118 83 201t199 83q103 0 181 -66t96 -166h17q116 0 199 -83t83 -201t-83 -201t-199 -83q-9 0 -12 1v-1h-578v1q-98 4 -167 78q-69 73 -69 173z" />
    <glyph glyph-name="d" unicode="d" horiz-adv-x="1054" 
d="M15 311l214 163l-214 162l311 203l203 -174l208 174l302 -193l-198 -165l198 -170l-307 -185l-203 156l-203 -156zM228 60v57l94 -55l203 155l1 -1v-355zM233 476l294 -185l296 196l-294 169zM526 -139l1 355l2 1l202 -155l100 60v-63z" />
    <glyph glyph-name="e" unicode="e" horiz-adv-x="1425" 
d="M506 137q-71 -34 -206 -34q-184 0 -238 51q-27 25 -37 53.5t-10 77.5q0 78 38 113t119 50q54 9 128 9q90 0 148 -13q38 -7 58 -18v-161h-293q0 -74 37 -91q20 -9 50 -9q85 0 85 61h121v-89zM391 319q0 60 -37 72q-20 7 -54 7q-63 0 -77 -30q-10 -22 -10 -49h178zM506 226
h78q-2 -51 -74 -87q-2 -2 -4 -2v89zM808 200q-3 -70 -26 -110t-81 -40q-64 0 -91 50h-1v-42h-103v79q2 0 4 2q72 36 74 87h-78v39h81q1 8 1 23q0 57 -18.5 87.5t-63.5 50.5v183h107v-203h2q32 44 88 44q43 0 69 -26q-40 -28 -40 -102q0 -104 76 -122zM506 426
q45 -20 63.5 -50.5t18.5 -87.5q0 -15 -1 -23h-81v161zM622 146q9 -30 35 -30q28 0 37 30t9 108v5q0 60 -6 89q-7 36 -40 36t-39 -38q-5 -29 -5 -92q0 -78 9 -108zM772 424q17 -19 26 -53t10.5 -55t-0.5 -64v-52q-76 18 -76 122q0 74 40 102zM1041 205q0 6 -2 36t-2 37v102
l-107 218q-45 3 -49 3q-66 0 -101 -26q-40 -25 -40 -94h107q0 32 7.5 46t32.5 14q26 0 35 -13t9 -44v-31h-24q-97 0 -135 -29q17 -19 26 -53q4 -15 6 -25t3 -22t1 -17v-25v-30v-52q5 -1 26 -1q67 0 100 58h2l5 -52h100zM837 327q-11 9 1 20q12 10 5 15q-5 3 0.5 7.5
t11.5 7.5t4 5q-5 2 18 7l7 1l14 2q2 0 17 0.5t16 0.5q0 -6 0.5 -22.5t0.5 -26.5t-1.5 -22.5t-4.5 -19.5q-15 -37 -48 -37q-41 0 -41 62zM904 650h154l100 -232l109 232h143l-189 -359v-190h-141v190l-43 89v91q0 61 -24 90t-83 37zM930 598q59 -8 83 -37t24 -90v-91z" />
    <glyph glyph-name="f" unicode="f" horiz-adv-x="568" 
d="M15 313v191h154v96q0 104 67 177t164 73h153v-191h-153q-17 0 -28 -18t-11 -39v-98h192v-191h-192v-463h-192v463h-154z" />
    <glyph glyph-name="g" unicode="g" horiz-adv-x="969" 
d="M227 157q82 0 147.5 -43t65.5 -111q0 -64 -62 -108q-63 -45 -151 -45q-89 0 -150 45q-62 45 -62 108q0 84 100 130q-26 40 -26 75q0 39 28 74q-38 23 -63 62t-25 89q0 73 53.5 125.5t127.5 52.5q55 0 101 -31h7q60 0 109 32v-115q-18 -10 -44 -14q7 -21 7 -50
q0 -70 -50 -121t-119 -55q-24 -29 -24 -53q0 -26 24 -48q1 0 3 0.5t3 0.5zM208 515q-29 0 -50.5 -24.5t-21.5 -55.5t21.5 -55.5t50.5 -24.5q30 0 51 24t21 56t-21 56t-51 24zM227 67q-34 0 -61 -17.5t-27 -46.5q0 -28 27 -46t61 -18t61.5 18t27.5 46q0 29 -27 46.5t-62 17.5
zM470 769q0 34 23.5 57.5t57.5 23.5t58 -23.5t24 -57.5t-24 -58t-58 -24t-57.5 24t-23.5 58zM489 601h134v-479h-134v479zM670 499h55v-285q9 -73 91 -99q15 -5 31 -7h20q22 0 45.5 7t32.5 17l7 9l2 99q-40 -13 -65 -13q-31 0 -36 17l-4 13q0 3 -1 4v238h91v102h-91v93h-123
v-93h-55v-102z" />
    <glyph glyph-name="h" unicode="h" horiz-adv-x="896" 
d="M15 -146v992l501 -496zM516 350l134 -133l-635 -367v4zM15 846l501 -496l134 133l-635 367v-4zM516 350l134 133l231 -133l-231 -133z" />
    <glyph glyph-name="i" unicode="i" 
d="M15 350q0 144 70 256.5t179 176.5q115 67 251 67q144 0 256.5 -70t176.5 -179q67 -115 67 -251q0 -144 -70 -256.5t-179 -176.5q-115 -67 -251 -67q-144 0 -256.5 70t-176.5 179q-67 115 -67 251zM232 67q117 -117 283 -117t283 117t117 283t-117 283t-283 117t-283 -117
t-117 -283t117 -283zM298 174q0 -31 21.5 -52.5t52.5 -21.5q33 0 57 24t24 57v269l200 37v-208q-17 5 -28 5q-33 0 -57 -24t-24 -57q0 -31 21 -52.5t52 -21.5t55.5 23.5t25.5 53.5v394l-290 -50v-300q-17 5 -28 5q-33 0 -57.5 -24t-24.5 -57z" />
    <glyph glyph-name="j" unicode="j" horiz-adv-x="794" 
d="M15 850h764v-817l-571 3v-186h-193v1000zM206 209h399v450h-399v-450z" />
    <glyph glyph-name="k" unicode="k" 
d="M15 283v134l3 59q3 60 6 62q5 4 14 52q9 51 24 56q16 5 36 46q21 42 50 48q146 110 356 110h16v-777h124v208q3 -4 24 -39l40 -64l26 -40q28 -38 60.5 -52t94.5 -14h36v118q-46 0 -63 7q-19 8 -42 41q-16 20 -63 100l171 238h-148l-136 -189v453q135 -23 238 -100
q48 -36 86 -94q16 -25 24 -56q16 -56 18 -93q1 -8 2 -21q3 -44 3 -59v-134l-3 -59q-3 -60 -6 -62q-5 -4 -14 -52q-9 -51 -24 -56q-16 -5 -36 -46q-21 -42 -50 -48q-146 -110 -367 -110t-367 110q-48 36 -86 94q-16 25 -24 56q-16 56 -18 93q-1 8 -2 21q-3 44 -3 59zM96 134
q66 -67 192 -67q80 0 138 41q57 40 57 118q0 46 -16.5 81.5t-46.5 48.5q-55 25 -117 28q-63 4 -63 42q0 47 70 46q56 0 87 -29l78 78q-60 60 -170 60q-78 0 -131 -41q-54 -42 -54 -118q0 -48 19.5 -81.5t52.5 -46.5q38 -14 122 -26q26 -4 36.5 -13t10.5 -31q0 -46 -72 -46
q-77 0 -113 36z" />
    <glyph glyph-name="l" unicode="l" horiz-adv-x="1359" 
d="M15 350q0 164 116 280t280 116q132 0 225 -67t141 -177l129 -300q21 -47 38 -74q39 -61 128 -66h7q65 0 111 36.5t47 95.5q0 53 -37 77q-28 19 -100 42q-124 40 -180 89q-55 48 -55 136q0 93 59 146.5t155 53.5q127 0 191 -115l-84 -43q-45 62 -112 62q-45 0 -76 -28.5
t-31 -72.5q0 -30 11 -45q15 -20 29 -30q40 -25 136 -52q109 -36 155 -84q46 -47 46 -140q0 -100 -76 -166q-76 -65 -186 -65h-3q-99 0 -161 47q-61 46 -103 140l-141 321q-32 73 -102.5 122t-160.5 49q-119 0 -203 -84q-85 -85 -85 -204t85 -204q84 -84 203 -84
q85 0 152.5 44t102.5 111l51 -118q-53 -65 -131.5 -105t-174.5 -40q-164 0 -280 116t-116 280z" />
    <glyph glyph-name="m" unicode="m" horiz-adv-x="1232" 
d="M15 800h185l9 -8h825l9 8h174v-900h-171v7h-855v-4h-176v897zM191 35v-80h855v74l-345 259l-79 -65l-86 70zM498 324l-307 252v-481zM622 438l347 298h-695zM739 319l307 -230v484z" />
    <glyph glyph-name="n" unicode="n" 
d="M15 527l316 323v-123l301 -277l187 46l-195 -208l391 -438l-444 392l-188 -192l30 169l-255 316z" />
    <glyph glyph-name="o" unicode="o" horiz-adv-x="1113" 
d="M15 203q-1 125 92 205q86 73 193 106t160 39l26 3v-123q-113 -8 -182 -56q-63 -43 -88 -93q-25 -48 -27 -74l-2 -12q-3 -15 -3 -30q0 -59 45 -100q58 -53 127 -78q70 -25 111 -34l19 -3v-103q-192 20 -302 92q-99 64 -134 138q-32 68 -34 106zM525 -150v902l142 98v-922z
M701 441h5q35 -1 76 -15.5t65 -30.5l21 -16l-83 -34l313 -78v245l-107 -61q-41 44 -112 69q-75 27 -126 31l-52 5v-115z" />
    <glyph glyph-name="q" unicode="q" horiz-adv-x="919" 
d="M693 16q30 -62 114 -83v-76q-34 -7 -67 -7q-50 0 -85 18q-56 29 -91 94q-46 -13 -105 -13q-127 0 -228 63.5t-157 161.5q-59 102 -59 225q0 129 62.5 231.5t158.5 159.5q102 60 223 60q185 0 315 -132q130 -131 130 -319q0 -125 -59.5 -225t-151.5 -158zM236 340
q0 -116 66 -198q66 -83 161 -83q25 0 52 8q-33 49 -75 70q-17 8 -36 10v88q7 1 20 1q119 0 203 -90q63 81 63 194v116q0 116 -66 198q-66 83 -161 83t-161 -83q-66 -82 -66 -198v-116z" />
    <glyph glyph-name="s" unicode="s" horiz-adv-x="1182" 
d="M28 296q5 -3 10 -32.5t5 -42.5q0 -14 -5 -42.5t-10 -31.5q-13 7 -13 74q0 17 3.5 44.5t9.5 30.5zM79 221q0 12 5.5 72t5.5 63q0 6 6 6q4 0 6 -6q12 -129 12 -135q0 -12 -6 -68.5t-6 -61.5q-1 -7 -6 -7q-6 0 -6 7q0 3 -5.5 61t-5.5 69zM160 221q0 7 5 64.5t5 63.5q0 9 7 9
q8 0 8 -9q11 -118 11 -128q0 -9 -11 -136q0 -8 -8 -8q-7 0 -7 8q0 7 -5 67t-5 69zM252 221q0 26 9 257q0 10 9 10q10 0 10 -10q10 -150 10 -257q0 -9 -5 -68.5t-5 -66.5q0 -10 -10 -10q-9 0 -9 10q-9 132 -9 135zM353 88q0 9 -3.5 66t-3.5 67q0 155 7 288q1 12 12 12t12 -12
q0 -5 4 -132t4 -156q0 -10 -1.5 -38.5t-4 -58.5t-2.5 -36q-1 -12 -12 -12t-12 12zM441 221q0 108 6 270q1 15 14 15t14 -15q6 -160 6 -270q0 -3 -6 -130q-1 -15 -14 -15q-12 0 -14 14q-6 129 -6 131zM542 571q2 18 16 18t16 -18q6 -348 6 -351q0 -1 -6 -127q-2 -17 -16 -17
t-16 17q-6 126 -6 127q0 3 6 351zM616 432q0 107 1 156q-2 19 34.5 28t69.5 9q96 0 169 -73t80 -178q27 13 55 13q59 0 99.5 -46.5t41.5 -109.5q1 -62 -40.5 -109t-100.5 -47h-393q-6 0 -10.5 6t-4.5 13q0 41 -0.5 167t-0.5 171z" />
    <glyph glyph-name="t" unicode="t" horiz-adv-x="646" 
d="M15 440v142q59 19 101 55q86 69 102 213h143v-253h237v-157h-237v-256q0 -86 9 -112q10 -27 41.5 -43t68.5 -16q78 0 151 49v-157q-60 -29 -109.5 -42t-118.5 -13q-66 0 -122 17q-106 36 -141 118q-14 36 -14 105v350h-111z" />
    <glyph glyph-name="v" unicode="v" horiz-adv-x="1041" 
d="M327 620h-4l-1 -1h-1q-71 -13 -87 -26q-18 -15 -20 -71v-165l-3 -18l526 -13l80 27q-52 -96 -70 -132l-106 -47l-406 -7q-2 -2 -10 -3.5t-11 -4.5q6 -36 7 -39q12 -52 112 -59q198 -13 335 -13q35 0 120 20t127 20q64 0 111 -29v-54q0 -155 -154 -155h-723q-61 0 -97 48
q-37 49 -37 111v678q0 66 43.5 114.5t107.5 48.5h697q71 0 117 -38.5t46 -105.5v-59l-111 20q-49 7 -54 7q-7 2 -27 9t-36.5 11t-32.5 4q-61 0 -132 -47q-19 -2 -93.5 -7t-123 -10t-86.5 -13h-2zM705 555q0 14 10 24.5t24 10.5q13 0 24 -11t11 -24q0 -14 -10.5 -24
t-24.5 -10t-24 10t-10 24z" />
    <glyph glyph-name="w" unicode="w" 
d="M15 350q0 144 70 256.5t179 176.5q115 67 251 67q144 0 256.5 -70t176.5 -179q67 -115 67 -251q0 -144 -70 -256.5t-179 -176.5q-115 -67 -251 -67q-144 0 -256.5 70t-176.5 179q-67 115 -67 251zM54 350q0 -141 74.5 -251t185.5 -164l-220 603q-40 -87 -40 -188z
M743 609q0 33 22.5 57.5t55.5 24.5q1 0 3 -0.5t3 -0.5q-130 121 -312 121q-125 0 -225.5 -58.5t-160.5 -149.5h30q48 0 123 6q11 1 17 -8t2 -19t-16 -11l-53 -5l168 -499l101 302l-72 197q-32 4 -48 5q-11 1 -15.5 11t1 19t17.5 8l121 -6q49 0 123 6q11 1 17 -8t2 -19
t-16 -11l-52 -5l166 -496l46 154q36 117 36 149q0 63 -39 128q-22 35 -35 63q-10 21 -10 45zM385 -93q61 -18 130 -18q78 0 153 26q-28 72 -76.5 207.5t-68.5 187.5zM747 -49q100 58 164.5 162.5t64.5 236.5q0 120 -56 221q3 -21 3 -47q0 -62 -35 -165z" />
    <glyph glyph-name="y" unicode="y" horiz-adv-x="771" 
d="M15 262q1 52 9 88q2 17 15 29.5t29 8.5l204 -82q37 -11 37 -46t-36 -46l-204 -62q-18 -6 -31 3t-17 25q-6 26 -6 68v14zM391 414q0 -19 -10.5 -30.5t-28.5 -11.5q-20 0 -37 26q-164 256 -213 340q-5 8 -5 16q0 9 6 18q13 18 38 28q79 31 171 46h5q44 0 49 -38
q25 -307 25 -394zM388 -118q-2 -11 -12 -19.5t-23 -8.5q-6 0 -16 4q-34 5 -85 25t-73 37q-18 14 -18 30q0 13 10 24l139 166q19 20 38 20q41 0 41 -48q0 -7 -1 -10v-220zM501 288q-17 0 -29.5 13.5t-12.5 32.5q0 16 15 32l130 180q8 8 20 8q21 0 36 -20q22 -24 51.5 -69.5
t38.5 -74.5q3 -8 3 -14q0 -26 -27 -32l-209 -54q-10 -2 -16 -2zM477 186q-9 -12 -9 -24q0 -16 13 -32l114 -190q8 -10 24 -10h3q18 1 33 16q25 23 54.5 62.5t42.5 69.5q4 9 4 20q0 25 -22 32l-205 70q-9 4 -19 4q-22 0 -33 -18z" />
    <glyph glyph-name="braceleft" unicode="{" horiz-adv-x="1316" 
d="M107 435q0 31 -21.5 52.5t-52.5 21.5h-18q173 33 208 71q27 30 45 91q18 -23 23 -49q5 -27 1 -39l-5 -13q-6 -12 -18 -34q-4 -8 -19 -20q-3 -3 -19 -13.5t-18 -11.5q-35 -27 -33 -63q1 -34 30 -54q26 -17 50 6q25 23 53 78q13 29 19 66q8 49 22 78.5t44 53.5q30 25 96 20
q38 -3 61 2t50 22q33 21 67 64q14 18 52 44q32 22 57 28.5t76 -0.5q42 -9 86 -45q-48 21 -90 21q-63 0 -111 -48q-19 -19 -26 -33l-7 -15q-25 -62 -52 -100q-17 -23 -49 -34l-37 -10l-33 -8q-42 -13 -50 -54q-6 -37 22 -53q30 -17 73 8.5t69 54.5q22 25 30 44q17 39 62.5 67
t98.5 39q42 8 83 8q44 0 67 3q197 31 246 114q47 79 49 130q32 -108 -15 -185q-38 -62 -85 -90l-18 -11q-113 -59 -212 -77q-36 -7 -62 -21q-103 -55 -52 -155q21 -41 62.5 -44.5t76.5 29.5q18 15 37 53q13 27 15 61q35 -101 -5 -160l-15 -22q-36 -37 -61 -53
q-60 -37 -152 -4q-81 20 -120 20q-34 -1 -62 -18t-42 -42q-15 -27 -2 -48q8 -15 18 -22t22.5 -6t25 6t32.5 16q37 21 61.5 28.5t72.5 9.5q88 2 139 -38q34 -22 74 -57q-43 25 -79 31q-55 9 -114 -20q-22 -11 -32 -21l-10 -10q-43 -49 -76 -72q-29 -20 -52.5 -20.5
t-58.5 14.5q-2 1 -21 9l-38 16q-17 7 -22 8v110q0 121 -92 186q-58 40 -134 40t-134 -39q-20 29 -51 33v75zM447 -77q0 -64 -43.5 -106t-108.5 -42q-93 0 -134 71q-19 34 -19 99v162q0 65 19 99q41 71 134 71q67 0 109.5 -43t42.5 -110v-135h-202v-67q0 -48 50 -48
q46 0 50 49h102zM345 66v56q0 56 -50 56t-50 -56v-56h100zM507 -133q11 38 11 71q0 11 -3 20q3 -1 34 -5q68 -6 89 -55q14 -35 7 -54q-32 24 -65 30q-35 6 -54 -1z" />
    <glyph glyph-name="bar" unicode="|" horiz-adv-x="881" 
d="M16 -27q3 31 12 66q15 60 143 700q12 52 24 73q14 24 42 31t84 7h241q32 0 127 -1t124 -1q41 0 50 -45q10 -48 -23 -92q-30 -40 -81 -40h-401l-50 -233l352 -3q44 0 54 -45t-21 -84q-27 -33 -70 -33h-360l-48 -248h432q65 0 77 -43q12 -45 -17 -88q-30 -44 -68 -44h-553
q-81 0 -70 123z" />
    <glyph glyph-name="braceright" unicode="}" horiz-adv-x="891" 
d="M15 138q0 44 32 76t76 32q43 0 75.5 -32t32.5 -76q0 -47 -34 -78q65 -74 163 -74q68 0 115.5 41t47.5 106q0 40 -25 77q-24 39 -60 64q-35 23 -115 57q-74 30 -117 55.5t-78 67.5q-28 34 -46 74q-14 40 -14 79q0 101 81 172q83 71 197 71q79 0 151 -32t117 -81
q37 -31 37 -80q0 -44 -32 -76t-76 -32q-45 0 -76.5 31.5t-31.5 76.5q0 23 10 44q-31 16 -88 16q-64 0 -109.5 -29t-45.5 -82q0 -43 38 -76q43 -35 128 -71q94 -41 141 -73q98 -67 130 -159q0 -1 1 -3t1 -3q-75 -61 -75 -158q0 -54 28 -104q-10 -13 -24 -27q-86 -82 -206 -82
t-208 64q-90 66 -139 194l3 1q-5 17 -5 29zM628 63q0 -52 36 -88.5t88 -36.5t88 36.5t36 88.5q0 51 -36.5 87.5t-87.5 36.5t-87.5 -36.5t-36.5 -87.5z" />
    <glyph glyph-name="asciitilde" unicode="~" horiz-adv-x="694" 
d="M115 835l8 -121h10l5 3q79 133 246 133q130 0 212 -98q83 -100 83 -254q0 -132 -52.5 -221.5t-148.5 -129.5q-57 -23 -116 -23q-71 0 -127 29.5t-85 78.5l-2 3h-11l-3 -7v-378h-113v761q0 87 -6 224h100zM134 422q0 -31 6 -55q18 -66 72 -111t128 -45q106 0 164.5 80
t58.5 201q0 113 -59 191t-159 78q-75 0 -130 -47t-72 -116q-9 -33 -9 -53v-123z" />
    <glyph glyph-name="sterling" unicode="&#xa3;" horiz-adv-x="698" 
d="M16 512q-10 152 126 252q139 103 320 81q96 -12 181 -59q-1 -40 0 -76q6 -119 -10 -153q-15 2 -52 14q-67 20 -127 24q-70 6 -99 -38q7 -43 38 -66q29 -20 82 -37q48 -13 69 -26q114 -71 139 -219v-85q0 -84 -46 -144.5t-117 -90.5q-106 -44 -245 -38q-140 6 -239 59
q3 43 0 80t-1.5 79.5t11.5 69.5q16 -3 66 -16t56 -14q165 -36 177 40q2 19 -5.5 34.5t-26 27t-29.5 17t-32 13.5q-50 21 -96 49q-59 36 -80 68q-54 76 -60 154z" />
    <glyph glyph-name="paragraph" unicode="&#xb6;" horiz-adv-x="705" 
d="M688 841v-112h-112v-781h-112v781h-111v-781h-112v447q-92 0 -157.5 65t-65.5 157.5t65.5 158t157.5 65.5h447z" />
    <glyph glyph-name="Ccedilla" unicode="&#xc7;" horiz-adv-x="1303" 
d="M15 435q0 38 87 65t211 27t211 -27t87 -65v-51q-1 -37 -88 -64t-210 -27t-210 27t-88 64v51zM302 654q1 18 64 32q64 14 149 14t149 -14q62 -14 63 -32h1v-27h-1q-1 -19 -63 -33q-64 -14 -149 -14t-149 14q-63 14 -64 33v27zM513 133v64q5 56 117 95q110 38 271 38
t271 -38q111 -39 116 -95v-64q-3 -55 -116 -94q-112 -39 -271 -39q-161 0 -271 38q-112 39 -117 95zM741 474v42q2 30 75 49q75 20 176 20t176 -20q73 -19 75 -49v-42q0 -29 -73 -50q-74 -21 -178 -21t-178 21q-73 21 -73 50z" />
    <glyph glyph-name="Eacute" unicode="&#xc9;" horiz-adv-x="1150" 
d="M15 704q0 20 13 33t33 13h235q17 0 29 -10t16 -25l24 -98h674l7 21q11 32 43 32q20 0 33 -13t13 -32q0 -3 -2 -13l-118 -393q-9 -33 -43 -33h-559q-16 0 -28.5 10.5t-16.5 24.5l-108 438h-199q-19 0 -32.5 13t-13.5 32zM449 278h489l38 126l36 122h-625zM429 42
q0 37 27.5 64.5t65.5 27.5t65 -27t27 -65t-27 -65t-65 -27t-65.5 27.5t-27.5 64.5zM494 448h166v-92h-146zM740 448h162l-24 -92h-139zM776 42q0 37 27.5 64.5t65.5 27.5q37 0 64.5 -27t27.5 -65t-27.5 -65t-64.5 -27q-38 0 -65.5 27.5t-27.5 64.5z" />
    <glyph glyph-name="Ntilde" unicode="&#xd1;" horiz-adv-x="954" 
d="M15 283l116 129h85v-64h-56l-80 -89v-245h795v245l-80 89h-56v64h85l115 -129v-333h-924v333zM216 269v330l151 151h372v-481h-523zM276 330h403v360h-252v-151h-151v-209z" />
    <glyph glyph-name="Odieresis" unicode="&#xd6;" horiz-adv-x="746" 
d="M15 136q0 61 25 94.5t77 48.5q-16 39 -16 59q0 32 35 70q38 35 69 35q17 0 40 -9q-46 131 -69 208q-24 81 -24 115q0 47 24 75t67 28q73 0 173 -295l17 -49q6 15 12 33q100 292 180 292q40 0 63.5 -27.5t23.5 -69.5q0 -28 -24 -113q-20 -68 -66 -200q61 -15 85 -58.5
t24 -128.5q0 -179 -106 -291q-108 -113 -274 -113q-65 0 -127 24q-56 20 -107 66.5t-76 98.5q-26 55 -26 107zM135 218q-23 0 -39 -24.5t-16 -52.5q0 -23 14 -59q19 -46 56 -86t80 -62q56 -28 129 -28q129 0 217 97q87 96 87 243q0 44 -4.5 67.5t-20.5 37.5
q-31 27 -113.5 42.5t-160.5 15.5q-22 0 -28 -6q-7 -3 -7 -20q0 -42 46 -58q49 -21 165 -21h28q15 0 23 -11q8 -8 11 -31q-18 -18 -55 -31q-76 -27 -117 -95q-23 -40 -23 -74q0 -22 10 -51q11 -35 11 -43v-6l-4 -15q-78 5 -83 123q-2 -1 -12 -1h-11q1 -3 1 -12
q0 -30 -23.5 -51t-53.5 -21q-47 0 -95 45q-48 46 -48 90q0 8 3 16q2 8 16 22q5 -6 19.5 -25.5t22.5 -28.5l21 -22q13 -14 24.5 -20t22.5 -6q7 0 15 5t8 11q0 8 -12 29q-6 13 -37 53q-30 37 -45 50q-16 14 -22 14zM210 374q-11 0 -25.5 -15.5t-14.5 -26.5q0 -14 16 -45
q13 -26 46 -68t55 -62q25 -20 36 -20q7 0 14 7.5t7 15.5q0 12 -18 58q-43 107 -85 141q-17 15 -31 15zM237 795q-10 0 -16 -9.5t-6 -21.5q0 -34 24 -107q25 -78 66 -190q11 6 28 6q1 0 8 -0.5t9 -0.5q1 0 4.5 -0.5t9.5 -1t12 -0.5l-69 200q-30 84 -44 104q-13 21 -26 21z
M400 204q19 22 40 38q-6 1 -29 5.5t-30 6.5l9 -25zM486 458l67 -12q46 128 69 199q25 79 25 96q0 32 -22 32q-15 0 -31 -27q-18 -27 -43 -101z" />
    <glyph glyph-name="Udieresis" unicode="&#xdc;" 
d="M115 -150q-41 0 -70.5 30t-29.5 70v800q0 40 29.5 70t70.5 30h800q41 0 70.5 -30t29.5 -70v-800q0 -40 -29.5 -70t-70.5 -30h-800zM303 138q88 -88 212 -88t212 88t88 212t-88 212t-212 88t-212 -88t-88 -212t88 -212zM315 350q0 82 59 141t141 59t141 -59t59 -141
t-59 -141t-141 -59t-141 59t-59 141z" />
    <glyph glyph-name="agrave" unicode="&#xe0;" horiz-adv-x="647" 
d="M15 3q0 76 57 112q25 17 54 29q116 50 122 54q-21 31 -114 139q-109 131 -94 247q6 44 26 72t58 51q45 26 97 47l91 40q81 35 111 51q20 11 25 -6q0 -11 -27 -25q-83 -55 -59 -172q7 -34 13.5 -50.5t24.5 -42.5q26 -37 62 -77q18 -20 29.5 -34t30.5 -35q41 -46 61 -75
q27 -40 41 -95q8 -30 8 -58q0 -39 -13 -68q-12 -33 -28.5 -52t-47.5 -39q-57 -35 -114 -57q-3 -1 -27.5 -12t-30.5 -13l-89 -39l-36 -18q-31 -16 -50 -21q-85 -21 -133 24t-48 123z" />
    <glyph glyph-name="aacute" unicode="&#xe1;" horiz-adv-x="1156" 
d="M91 679q51 82 96 114q37 27 110.5 45t135.5 6q51 -9 83 -32q39 -27 63 -57q37 -48 51 -73q44 -81 70 -145q2 -7 13 -31q6 41 57 188q48 141 67 145q91 21 145 0l16 -16q-1 -31 -14 -71q-1 -3 -25 -67l-160 -439q-7 -33 19 -90q26 -56 67 -93q29 -26 53.5 -27t38.5 26
q11 22 28 29.5t57 7.5q54 0 67 -19q28 -52 -1 -100.5t-78 -84.5q-78 -57 -148 -42q-80 16 -129 81q-30 40 -80 127q-3 -1 -6 -4q-24 -58 -82 -106.5t-126 -74.5q-79 -29 -157.5 -19t-137.5 53q-84 60 -131 204q-45 137 -36 300q9 158 74 265zM169 426q-13 -108 9 -211
q23 -104 73 -141q86 -64 157 -32l34 16q9 4 22 14t28 26q5 5 13 14t11 12t8.5 9t7.5 9l8 10l10 14l10 17l22 33l16 30l22 36q-37 157 -64 223q-74 173 -202 155q-56 -8 -80.5 -21t-50.5 -50q-41 -56 -54 -163z" />
    <glyph glyph-name="acircumflex" unicode="&#xe2;" horiz-adv-x="1108" 
d="M108 642q54 51 127.5 74t158.5 -1q69 -19 124 -71t76 -120q35 -115 -8 -218q-16 -27 -8.5 -66.5t19 -65.5t26.5 -50q25 -38 51 -68t26 -33l-11 9q-57 57 -133 98q-40 22 -90 26q-24 1 -42 -7q-104 -42 -220 2q-62 23 -103 69q-86 92 -86 212q0 122 93 210zM180 327
q41 -55 112 -64q69 -9 124 33q55 41 64 112q9 69 -33 124t-111 64t-124 -33q-56 -42 -65 -111t33 -125zM625 746q19 55 70.5 86.5t116.5 9.5q54 -17 85 -70t10 -118q-24 -73 -114 -104q-24 -9 -50.5 -30t-39.5 -42q-7 -11 -23 -40q22 94 -24 159q-55 79 -31 149zM663 251
q2 91 63.5 154.5t151.5 63.5q88 0 152 -62q63 -61 63 -156q0 -109 -110 -195q-38 -29 -62 -71q-21 -38 -28 -60t-15 -75q-6 52 -12 75.5t-28 60.5q-24 42 -65 74q-112 83 -110 191zM701 723q-12 -30 1.5 -56.5t37.5 -36.5q30 -12 56 1t36 37q12 31 -1 57t-37 36
q-30 12 -56.5 -1t-36.5 -37zM768 208q17 -41 61.5 -63.5t95.5 -1.5q41 17 63.5 61.5t1.5 95.5q-17 41 -61.5 64t-95.5 2q-46 -19 -65 -65q-19 -45 0 -93z" />
    <glyph glyph-name="atilde" unicode="&#xe3;" horiz-adv-x="1029" 
d="M491 538q38 -111 88 -176t141 -117q63 7 116 7q178 0 178 -70q0 -9 -5 -24l-3 1q-4 -42 -67 -42q-103 0 -240 72q-221 -23 -389 -82q-147 -257 -235 -257q-15 0 -52 20q-8 8 -8 22q0 51 61 106q63 57 123 89l15 -22q-43 -31 -90 -82t-59 -90q87 27 265 379
q67 135 103 261q-33 107 -33 202q0 115 47 115h20q4 0 12.5 -1.5t13 -4.5t9.5 -9q9 -11 9 -34q0 -15 -3 -28l-27 1q-1 26 -17 41q-12 -19 -12 -69q0 -38 9 -94q9 60 18 107l26 -3q-1 -149 -14 -218zM631 232q-103 73 -164 209q-35 -120 -134 -294q130 53 298 85zM819 197
q91 -35 142 -35q15 0 22 3q0 32 -145 32h-19z" />
    <glyph glyph-name="adieresis" unicode="&#xe4;" horiz-adv-x="905" 
d="M15 282q0 65 20 129.5t49 106.5q30 43 73 82.5t87 63.5q92 47 123 73q43 35 50 113q72 -87 106 -110q16 -10 75 -39t72 -37q28 -16 42.5 -27.5t47.5 -44.5q41 -39 65 -79t44 -102q21 -65 21 -137q0 -186 -128 -305t-306 -119q-125 0 -223 59t-156 152q-62 101 -62 221z
M205 131q-2 -59 33 -86.5t103 -27.5q42 0 97 29l106 59q49 29 70 28q25 -2 78 -56t70 -56q18 -1 34 9q12 8 31 35q33 49 33 117q0 28 -15 54t-47 26q-21 0 -92 -47t-94 -48q-22 0 -61 27q-41 28 -89 56q-49 28 -98 28q-66 -2 -112 -45q-45 -43 -47 -102zM410 -69
q46 -42 165 -31q27 2 57 14.5t44 26.5q4 4 4 16q-3 12 -14 3q-41 -32 -124 -32q-76 0 -110 28q-4 2 -8 2q-6 0 -14 -7q-11 -10 0 -20zM500 3q4 -5 16 2.5t26 18t20 12.5q9 3 27 3q29 0 39 -13q1 -1 4 -7t6 -11t4 -6q2 -1 8 1q11 7 7.5 19t-10.5 22t-12 13q-12 9 -43 9
q-26 0 -41 -6q-20 -9 -44 -32q-14 -12 -7 -25z" />
    <glyph glyph-name="aring" unicode="&#xe5;" horiz-adv-x="1009" 
d="M15 88q18 24 81 45q22 7 40 16q30 0 67 -20q20 -11 25 -12q2 -1 260 -119q13 -5 29 -1.5t23.5 6.5t22.5 12q28 16 101 49q78 35 128 61q37 19 61 24q21 3 39 -3.5t37 -18.5t31 -16q11 -4 16.5 -6.5t11 -9.5t6.5 -17q-10 -13 -32 -24t-50.5 -21.5t-39.5 -16.5l-128 -62
l-129 -61q-6 -2 -23.5 -12.5t-21.5 -12.5q-37 -17 -52 -18q-6 0 -30 2l-264 123q-23 12 -89 39t-95 44q-18 10 -21 17q-4 4 -4 13zM15 356q10 14 30 24.5t52.5 21.5t40.5 14q14 0 29 -4t22 -7t24 -12l19 -10l127 -59l127 -58q19 -5 35 -1.5t41 17.5l25 15l160 72q10 4 31 16
t39.5 20t35.5 11q29 6 69 -18q22 -13 23 -13q5 -3 19 -8t21.5 -11.5t8.5 -19.5q-10 -14 -31.5 -25.5t-52 -22.5t-41.5 -16l-258 -124q-5 -2 -28 -14.5t-27 -14.5q-48 -19 -68 -10q-265 124 -304 141q-84 35 -131 59q-29 14 -34 23q-4 4 -4 14zM15 623q10 15 31.5 26t51.5 22
t42 17l348 162q35 0 56 -7t54 -26q34 -20 274 -131l45 -19q38 -16 46 -20q10 -5 13.5 -7t8.5 -6t6.5 -8.5t2.5 -11.5q-15 -21 -70 -42q-28 -9 -34 -13l-140 -67l-139 -66l-21 -12q-13 -7 -24.5 -12.5t-22.5 -9.5q-17 -6 -27 -6q-17 0 -28 1l-319 146q-48 21 -102 47
q-43 21 -48 30q-4 4 -4 13z" />
    <glyph glyph-name="ccedilla" unicode="&#xe7;" horiz-adv-x="1166" 
d="M1151 695q0 -9 -0.5 -49.5t-0.5 -49.5q0 -204 -23 -327q-22 -116 -92.5 -208t-168.5 -145q-178 -97 -393 -51q-205 44 -337 206q-66 81 -96 182q-16 54 -23 267q-7 214 12 270q6 13 19 24.5t23 17t29 14.5q60 0 359.5 2t355.5 2h94q108 0 111 -3q2 -1 45 -6q36 -4 35 -8
q0 -1 -2 -2q29 -17 43 -54q10 -27 10 -82zM249 522q-25 -28 15 -90l14 -19l14 -19q8 -11 14 -18l16 -18q10 -12 14 -16l18 -18q13 -14 15.5 -17t18.5 -19l19 -19l15 -15q9 -9 11.5 -12t9.5 -10t9.5 -9t8 -7t9.5 -8l10 -7l13 -9q6 -5 15 -11q30 -20 57 -28q11 -3 22 -3
q25 0 39 7q24 12 32 19q63 54 173 161q34 32 68 79q33 46 35 76q-29 80 -89 64q-55 -15 -115 -74l-105 -107q-26 -26 -37 -32q-48 29 -155 141q-36 39 -73 64t-55 15q-20 -12 -56 -41z" />
    <glyph glyph-name="eacute" unicode="&#xe9;" horiz-adv-x="896" 
d="M142 808q128 42 306 42q180 0 306 -42q127 -42 127 -102q0 -12 -72 -440q-9 -45 -111 -89q-101 -43 -250 -43t-250 43q-103 44 -110 89q-73 411 -73 440q0 60 127 102zM122 129q0 17 15 17q5 0 12 -5q45 -37 122 -58q77 -22 126 -23l51 -3q117 0 227 43q41 16 73 41l11 5
q16 0 16 -17q0 -3 -1 -4l-19 -101q-10 -53 -11 -60q-10 -49 -96 -82q-83 -32 -200 -32t-200 32q-85 33 -95 82q-15 70 -31 161v4zM252 680q81 -18 196 -18q113 0 196 17q82 17 82 41t-82 42q-81 18 -196 18q-113 0 -196 -17q-81 -17 -81 -42q0 -23 81 -41zM310 368
q0 -56 41 -97t97 -41t97 41t41 97t-41 97t-97 41t-97 -41t-41 -97zM379 368q0 -28 20.5 -48.5t48.5 -20.5t48.5 20.5t20.5 48.5t-20.5 48.5t-48.5 20.5t-48.5 -20.5t-20.5 -48.5z" />
    <glyph glyph-name="uni2139" unicode="&#x2139;" horiz-adv-x="400" 
d="M158 60q-54 0 -92 30.5t-38 79.5q0 36 55 120q50 70 50 106q0 54 -65 54q-25 0 -50 -15q70 55 140 55h5q51 0 88 -31t37 -79q0 -36 -55 -120q-49 -68 -49 -106q0 -54 64 -54q24 0 50 15q-64 -55 -140 -55zM184 650q0 40 30 70t69.5 30t69.5 -30t30 -70t-30 -70t-69.5 -30
t-69.5 30t-30 70z" />
    <glyph glyph-name="arrowleft" unicode="&#x2190;" horiz-adv-x="836" 
d="M18 360v30l5 10v5q15 16 15 25l250 250q20 20 55 20t55 -20t20 -55q0 -36 -20 -55l-124 -120h469q30 0 52.5 -22.5t22.5 -52.5t-22.5 -52.5t-52.5 -22.5h-469l124 -120q20 -20 20 -56q0 -34 -20 -54t-55 -20t-55 20l-250 250q0 10 -15 25v5z" />
    <glyph glyph-name="arrowup" unicode="&#x2191;" horiz-adv-x="655" 
d="M231 366h-212l307 306l310 -308h-212l2 -336h-195v338z" />
    <glyph glyph-name="arrowright" unicode="&#x2192;" horiz-adv-x="836" 
d="M18 375q0 30 23 52.5t53 22.5h469l-125 120q-20 20 -20 55t20 55t55 20t55 -20l250 -250q0 -9 16 -25v-5l4 -10v-30l-4 -10v-5q-16 -15 -16 -25l-250 -250q-20 -20 -55 -20t-55 20t-20 54.5t20 55.5l125 120h-469q-30 0 -53 22.5t-23 52.5z" />
    <glyph glyph-name="arrowdown" unicode="&#x2193;" horiz-adv-x="655" 
d="M424 334h212l-307 -306l-310 308h212l-2 336h195v-338z" />
    <glyph glyph-name="uni21B0" unicode="&#x21b0;" horiz-adv-x="880" 
d="M215 350v-90l-200 160l200 170v-100h550q41 0 70.5 -29.5t29.5 -70.5v-280h-140v240h-510z" />
    <glyph glyph-name="uni21B3" unicode="&#x21b3;" horiz-adv-x="774" 
d="M115 200q-41 0 -70.5 29.5t-29.5 70.5v350h140v-310h364v150l240 -220l-240 -220v150h-404z" />
    <glyph glyph-name="uni21B6" unicode="&#x21b6;" horiz-adv-x="928" 
d="M804 738q107 -107 107 -262q0 -150 -107 -257l-84 -84l-79 80l84 84q74 74 74 177q0 108 -74 183q-72 72 -180 72t-180 -72l-153 -155h141v-109h-335v334h112v-147l156 156q103 103 259 103t259 -103zM533 -52l-79 79l79 80l79 -80z" />
    <glyph glyph-name="uni21C4" unicode="&#x21c4;" horiz-adv-x="928" 
d="M911 171h-670v-111l-223 168l223 167v-112h670v-112zM18 506v112h670v111l223 -166l-223 -168v111h-670z" />
    <glyph glyph-name="uni21C6" unicode="&#x21c6;" 
d="M715 452h-500v-90l-200 160l200 170v-100h500v-140zM1015 172l-200 -160v90h-500v140h500v100z" />
    <glyph glyph-name="infinity" unicode="&#x221e;" horiz-adv-x="1035" 
d="M88 525q74 75 175 75q105 0 175 -75l80 -75l80 80q69 70 175 70q101 0 175 -75q70 -69 70 -175t-70 -175q-74 -75 -175 -75q-106 0 -175 75l-80 75l-80 -80q-70 -70 -175 -70q-101 0 -175 75q-70 69 -70 175t70 175zM163 350q0 -44 28.5 -74t71.5 -30h5q40 0 70 30l75 74
l-75 74q-30 30 -75 30q-41 0 -70.5 -31t-29.5 -73zM623 350l74 -74q30 -30 71 -30h5q44 0 69 30q30 30 30 74t-30 74q-25 30 -69 30h-5q-41 0 -71 -30z" />
    <glyph glyph-name="uni229E" unicode="&#x229e;" horiz-adv-x="830" 
d="M715 750q42 0 71 -29t29 -71v-600q0 -41 -29.5 -70.5t-70.5 -29.5h-600q-40 0 -70 30t-30 70v600q0 41 29.5 70.5t70.5 29.5h600zM665 300v100h-200v200h-100v-200h-200v-100h200v-200h100v200h200z" />
    <glyph glyph-name="uni229F" unicode="&#x229f;" horiz-adv-x="830" 
d="M715 750q42 0 71 -29t29 -71v-600q0 -41 -29.5 -70.5t-70.5 -29.5h-600q-40 0 -70 30t-30 70v600q0 41 29.5 70.5t70.5 29.5h600zM665 300v100h-500v-100h500z" />
    <glyph glyph-name="house" unicode="&#x2302;" horiz-adv-x="1198" 
d="M1180 575v-90h-1161v90h547v173h338v-173h276zM1070 441v-489h-569v300h-170v-300h-205v489h944zM798 372h-147v-176h147v176zM989 196v176h-147v-176h147z" />
    <glyph glyph-name="uni2328" unicode="&#x2328;" 
d="M945 650q28 0 49 -21t21 -49v-460q0 -29 -20.5 -49.5t-49.5 -20.5h-860q-29 0 -49.5 20.5t-20.5 49.5v460q0 28 21 49t49 21h860zM565 450h100v100h-100v-100zM615 400v-100h100v100h-100zM415 450h100v100h-100v-100zM465 400v-100h100v100h-100zM265 450h100v100h-100
v-100zM315 400v-100h100v100h-100zM115 450h100v100h-100v-100zM165 400v-100h100v100h-100zM215 250h-100v-100h100v100zM765 250h-500v-100h500v100zM915 250h-100v-100h100v100zM865 300v100h-100v-100h100zM915 450v100h-200v-100h200z" />
    <glyph glyph-name="uni232B" unicode="&#x232b;" horiz-adv-x="1032" 
d="M917 700q42 0 71 -29t29 -71v-500q0 -41 -29.5 -70.5t-70.5 -29.5h-478q-39 0 -70 28l-340 296q-29 26 0 54l340 296q31 26 70 26h478zM777 150l72 74l-128 126l128 128l-72 72l-128 -126l-128 126l-72 -72l128 -128l-128 -126l72 -74l128 128z" />
    <glyph glyph-name="uni2387" unicode="&#x2387;" horiz-adv-x="817" 
d="M576 841h112v-108q0 -115 -82 -197l-316 -314q-44 -45 -48 -106h111l-167 -168l-168 168h113q6 111 80 185l316 314q49 50 49 118v108zM686 116h113l-167 -168l-168 168h111q-4 61 -48 106l-63 62l80 79l62 -62q74 -74 80 -185z" />
    <glyph glyph-name="uni2389" unicode="&#x2389;" horiz-adv-x="705" 
d="M18 -52v893h223v-893h-223zM464 -52v893h224v-893h-224z" />
    <glyph glyph-name="uni23CF" unicode="&#x23cf;" horiz-adv-x="636" 
d="M18 250h600v-150h-600v150zM18 350l300 300l300 -300h-600z" />
    <glyph glyph-name="uni23E9" unicode="&#x23e9;" horiz-adv-x="890" 
d="M15 -61v822q0 15 7.5 17.5t17.5 -7.5l396 -396q6 -6 8 -10v396q0 15 7.5 17.5t17.5 -7.5l396 -396q10 -10 10 -25t-10 -25l-396 -396q-10 -10 -17.5 -7.5t-7.5 17.5v396q-2 -4 -8 -10l-396 -396q-10 -10 -17.5 -7.5t-7.5 17.5z" />
    <glyph glyph-name="uni23EA" unicode="&#x23ea;" horiz-adv-x="890" 
d="M15 350q0 14 11 25l396 396q10 10 17.5 7.5t7.5 -17.5v-396q3 6 7 10l396 396q10 10 17.5 7.5t7.5 -17.5v-822q0 -15 -7.5 -17.5t-17.5 7.5l-396 396q-4 4 -7 10v-396q0 -15 -7.5 -17.5t-17.5 7.5l-396 396q-11 11 -11 25z" />
    <glyph glyph-name="uni23ED" unicode="&#x23ed;" horiz-adv-x="928" 
d="M18 841l670 -446l-670 -447v893zM688 60v669h223v-669h-223z" />
    <glyph glyph-name="uni23EE" unicode="&#x23ee;" horiz-adv-x="928" 
d="M911 -52l-670 447l670 446v-893zM18 60v669h223v-669h-223z" />
    <glyph glyph-name="uni23F3" unicode="&#x23f3;" horiz-adv-x="590" 
d="M527 526q-51 -56 -97 -99q-49 -46 -49 -77q0 -30 49 -76t97 -97t48 -97v-118q0 -34 -86 -73q-85 -39 -194 -39t-194 39q-86 39 -86 73v118q0 46 48 97t97 97t49 76q0 31 -49 77q-46 43 -97 99q-48 52 -48 96v118q0 32 87 71t193 39t193 -39t87 -71v-118q0 -44 -48 -96z
M75 720q-4 -7 4 -14q91 -52 216 -52q131 0 220 50q14 11 -16 30q-96 54 -202 54q-120 0 -204 -54zM321 350q0 38 22 66q20 26 51 56l29 28q92 92 92 122l2 50q-101 -54 -222 -54t-222 54l4 -50q0 -32 90 -122q3 -4 22.5 -22t22.5 -21l19 -19q2 -3 5.5 -7t11 -13.5t11 -15
t0.5 -5.5q-6 1 2 -12q17 -29 15 -33q-1 -2 -5 -2q0 -24 -7 -37q-18 -32 -19 -33l-12 -15l-31 -31l-35 -32q-90 -90 -90 -122v-66q4 2 66 23q58 19 92 43t34 58q0 30 26 30t26 -30q0 -34 33 -58q32 -23 94 -43q63 -20 67 -23v66q0 30 -92 122l-28 28l-33 32q-17 17 -30 42
q-11 19 -11 46z" />
    <glyph glyph-name="filledbox" unicode="&#x25a0;" horiz-adv-x="630" 
d="M541 650q74 0 74 -64v-470q0 -66 -74 -66h-450q-76 0 -76 66v470q0 36 18 50t58 14h450z" />
    <glyph glyph-name="H18543" unicode="&#x25aa;" horiz-adv-x="928" 
d="M18 -52v893h893v-893h-893z" />
    <glyph glyph-name="uni25B4" unicode="&#x25b4;" horiz-adv-x="577" 
d="M19 114l269 472l271 -472h-540z" />
    <glyph glyph-name="uni25B6" unicode="&#x25b6;" horiz-adv-x="705" 
d="M18 841l670 -446l-670 -447v893z" />
    <glyph glyph-name="uni25B8" unicode="&#x25b8;" horiz-adv-x="503" 
d="M490 400l-476 -238v476z" />
    <glyph glyph-name="uni25BE" unicode="&#x25be;" horiz-adv-x="503" 
d="M252 162l-238 476h476z" />
    <glyph glyph-name="uni25C2" unicode="&#x25c2;" horiz-adv-x="547" 
d="M529 92l-510 257l510 259v-516z" />
    <glyph glyph-name="uni25D1" unicode="&#x25d1;" 
d="M965 390q19 0 34.5 -11.5t15.5 -28.5q0 -40 -50 -40h-48q-50 0 -50 40q0 17 15.5 28.5t34.5 11.5h48zM710 544q81 -80 81 -194q0 -116 -81 -196q-82 -80 -195 -80q-114 0 -194 80t-80 196q0 114 80 194t194 80q113 0 195 -80zM521 550q-85 0 -146 -59q-60 -59 -60 -141
q0 -84 60.5 -142t145.5 -58v400zM115 390q19 0 34.5 -11.5t15.5 -28.5q0 -40 -50 -40h-50q-50 0 -50 40q0 17 15.5 28.5t34.5 11.5h50zM515 700q-17 0 -28.5 15.5t-11.5 34.5v50q0 19 11.5 34.5t28.5 15.5t28.5 -15.5t11.5 -34.5v-50q0 -19 -11.5 -34.5t-28.5 -15.5zM515 0
q17 0 28.5 -15.5t11.5 -34.5v-50q0 -19 -11.5 -34.5t-28.5 -15.5t-28.5 15.5t-11.5 34.5v50q0 19 11.5 34.5t28.5 15.5zM849 626q-34 -34 -64 -8q-28 28 8 64q6 8 34 36q36 34 64 6t-8 -64zM183 72q12 14 30 17.5t32 -9.5q12 -15 9.5 -33t-15.5 -31l-36 -36q-13 -13 -31 -16
t-31 10q-30 28 6 64q8 6 36 34zM239 682q36 -36 6 -64q-14 -11 -32 -7.5t-30 15.5q-28 28 -36 34q-13 13 -15.5 31t9.5 33q13 13 31 10t31 -16zM793 16q-36 36 -8 64t64 -8l34 -34q36 -36 8 -64t-64 6q-28 28 -34 36z" />
    <glyph glyph-name="uni2600" unicode="&#x2600;" horiz-adv-x="928" 
d="M464.5 618q92.5 0 158 -65.5t65.5 -158t-65.5 -158t-158 -65.5t-158 65.5t-65.5 158t65.5 158t158 65.5zM521 786q0 -24 -17 -40.5t-39.5 -16.5t-39 16.5t-16.5 40.5t16.5 39.5t38.5 15.5q24 0 40.5 -16t16.5 -39zM130 674q0 55 56 55q55 0 55 -55q0 -56 -55 -56
q-56 0 -56 56zM74 451q23 0 39.5 -16t16.5 -40t-16 -40t-40 -16t-40 16.5t-16 39.5q0 24 16 40t40 16zM130 116q0 55 56 55q55 0 55 -55q0 -56 -55 -56q-56 0 -56 56zM409 5q0 22 16.5 38.5t38.5 16.5q24 0 40.5 -16.5t16.5 -39t-17 -39.5t-39.5 -17t-39 16.5t-16.5 40.5z
M704.5 76.5q-15.5 15.5 -15.5 38.5t15.5 39.5t39.5 16.5t39.5 -16.5t15.5 -39.5t-15.5 -38.5t-39.5 -15.5t-39.5 15.5zM856 339q-24 0 -40.5 16.5t-16.5 39.5q0 24 17 40t39.5 16t39 -16t16.5 -40t-16.5 -40t-38.5 -16zM783.5 634.5q-15.5 -16.5 -39.5 -16.5t-39.5 16.5
t-15.5 39.5t15.5 40t39.5 17t39.5 -17t15.5 -40t-15.5 -39.5z" />
    <glyph glyph-name="uni2601" unicode="&#x2601;" horiz-adv-x="1318" 
d="M1305 205q0 -100 -68 -174q-68 -73 -167 -80v-1h-783v1q-4 -1 -19 -1q-105 0 -179.5 74.5t-74.5 180.5q0 71 35 128.5t89 88.5q-8 31 -8 56q0 106 75 180.5t180 74.5q94 0 168 -63q36 76 111.5 128t170.5 52q130 0 221.5 -92t91.5 -221q0 -51 -14 -93q72 -25 121.5 -90.5
t49.5 -148.5z" />
    <glyph glyph-name="uni2602" unicode="&#x2602;" horiz-adv-x="928" 
d="M464.5 841q184.5 0 315.5 -131t131 -315h-112q0 16 -12.5 29t-29.5 13t-29.5 -13t-12.5 -29h-111q0 16 -13 29t-29.5 13t-28.5 -13t-12 -29v-279q0 -69 -49.5 -118.5t-119 -49.5t-118 49.5t-48.5 118.5h112q0 -24 16 -40t39 -16q24 0 40 16t16 40v279q0 16 -12.5 29
t-29.5 13t-29.5 -13t-12.5 -29h-111q0 16 -13 29t-29.5 13t-29 -13t-12.5 -29h-112q0 184 131 315t315.5 131z" />
    <glyph glyph-name="uni2605" unicode="&#x2605;" horiz-adv-x="972" 
d="M958 504q0 -14 -26 -35l-247 -180l94 -290q5 -17 5 -27q0 -22 -16 -22q-15 0 -34 15l-248 179l-248 -179q-20 -15 -35 -15q-16 0 -16 21q0 10 6 28l94 290l-247 180q-26 19 -26 34q0 20 44 20l306 -1l93 292q11 36 29 36q17 0 28 -36l95 -292l305 1q44 0 44 -19z" />
    <glyph glyph-name="uni2606" unicode="&#x2606;" horiz-adv-x="959" 
d="M206 -53q-23 0 -23 27q0 7 1 12l48 279l-203 197q-14 16 -14 27q0 22 31 26l280 40l126 254q11 23 27 23q17 0 28 -23l125 -254l280 -40q32 -5 32 -26q0 -12 -15 -27l-203 -197l48 -279q0 -1 0.5 -5t0.5 -7q0 -27 -23 -27q-10 0 -22 6l-251 132l-250 -132q-12 -6 -23 -6z
M138 455l171 -165l-41 -235l211 111l211 -111l-41 235l171 165l-235 35l-106 213l-105 -213z" />
    <glyph glyph-name="uni2611" unicode="&#x2611;" horiz-adv-x="958" 
d="M176 -7q-66 0 -113.5 47.5t-47.5 113.5v464q0 66 47.5 113.5t113.5 47.5h464q34 0 65 -14q8 -4 10 -13t-5 -16l-27 -28q-5 -5 -13 -5q-3 0 -5 1q-14 3 -25 3h-464q-37 0 -63.5 -26t-26.5 -63v-464q0 -37 26.5 -63.5t63.5 -26.5h464q37 0 63 26.5t26 63.5v141q0 8 5 13
l36 35q6 6 13 6q8 0 13 -5.5t5 -12.5v-177q0 -66 -47.5 -113.5t-113.5 -47.5h-464zM158 421q0 18 14 32l61 62q13 13 32 13t32 -13l147 -147l361 361q13 13 31 13q19 0 32 -13l62 -61q13 -13 13 -32t-13 -32l-455 -454q-14 -14 -31 -14q-18 0 -32 14l-240 240q-14 14 -14 31
z" />
    <glyph glyph-name="uni2615" unicode="&#x2615;" horiz-adv-x="711" 
d="M604 719q49 -20 71.5 -42t19.5 -45l-72 -594q-1 -13 -34 -36q-36 -25 -104 -43.5t-130 -18.5t-128 18.5t-105 43.5q-34 23 -35 36l-72 594q-5 28 36 57q46 33 129.5 52t174.5 19q150 0 249 -41zM355 544q62 0 129.5 14t105.5 34q33 18 33 30t-33 29q-39 20 -106 33.5
t-129 13.5t-129 -13.5t-106 -33.5q-33 -17 -33 -29t33 -30q38 -20 105.5 -34t129.5 -14z" />
    <glyph glyph-name="uni261C" unicode="&#x261c;" 
d="M15 422q0 57 43 99.5t100 42.5h209q-13 36 -13 72q0 67 45 105t116 38q23 0 42.5 -12.5t28.5 -25.5t21 -35l11 -22l16 -31q7 -14 12 -22q28 -45 86 -105q11 -11 26 -23q14 -10 25 -10h161q29 0 50 -21.5t21 -50.5v-357q0 -29 -21 -50t-50 -21h-161q-33 0 -125 -33
q-106 -39 -176 -39q-80 0 -129 44t-48 121v3q-34 41 -34 99q0 8 2 24q-20 34 -21 67h-94q-58 0 -100.5 42.5t-42.5 100.5zM86 421q0 -28 21.5 -49.5t50.5 -21.5h185q-20 -22 -20 -57q0 -39 30 -67q-10 -17 -10 -38q0 -22 10.5 -42.5t25.5 -28.5q-2 -18 -2 -31q0 -93 102 -93
q47 0 102 18l49 15l60 20q52 18 93 18h18v357h-18q-51 0 -100 53q-2 2 -15 16.5t-20 21.5q-55 62 -89 132q-20 42 -34 57q-6 6 -10 6q-89 0 -89 -71q0 -18 5 -35.5t10.5 -28.5t15.5 -28l14 -24q8 -15 8 -27h-321q-28 0 -50 -22t-22 -50zM872 100q0 -14 11 -25t25 -11t25 11
t11 25t-11 25t-25 11t-25 -11t-11 -25z" />
    <glyph glyph-name="uni261D" unicode="&#x261d;" horiz-adv-x="887" 
d="M15 350q0 71 38 116t105 45q35 0 71 -13v209q0 57 43 100t100 43q58 0 100.5 -42.5t42.5 -100.5v-94q32 -1 66 -21q16 2 24 2q55 0 100 -34q77 1 122 -47t45 -127q0 -77 -38 -179q-33 -91 -33 -125v-161q0 -29 -21.5 -50t-50.5 -21h-357q-29 0 -50 21t-21 50v161
q0 12 -21 38q-14 16 -36 35q-67 58 -116 82q-53 26 -76 44q-37 28 -37 69zM158 439q-72 0 -72 -89q0 -12 78 -50q63 -34 117 -83q43 -37 59 -57q32 -40 32 -78v-18h357v18q0 40 18 93l36 108q18 56 18 100q0 106 -93 106q-16 0 -32 -3q-8 15 -28 25.5t-42 10.5t-39 -10
q-29 30 -66 30q-35 0 -57 -20v185q0 29 -22 50.5t-50 21.5t-49.5 -22t-21.5 -50v-321q-18 0 -58 26q-39 27 -85 27zM658 -43q0 -14 11 -25t25 -11t24.5 11t10.5 25t-10.5 25t-24.5 11t-25 -11t-11 -25z" />
    <glyph glyph-name="uni261E" unicode="&#x261e;" 
d="M86 -7q-29 0 -50 21t-21 50v357q0 29 21 50.5t50 21.5h161q13 0 38 20q13 11 35 37q58 67 82 116q25 50 44 75q28 38 69 38q71 0 116 -38t45 -105q0 -36 -13 -72h209q57 0 100 -42.5t43 -99.5q0 -58 -42.5 -100.5t-100.5 -42.5h-94q-1 -33 -21 -67q2 -16 2 -24
q0 -54 -34 -99q1 -77 -47 -122.5t-127 -45.5q-74 0 -179 39q-92 33 -125 33h-161zM86 100q0 -14 11 -25t25 -11t25 11t11 25t-11 25t-25 11t-25 -11t-11 -25zM229 64h18q41 0 93 -18l34 -11l39 -13l35 -11q56 -18 100 -18q106 0 106 93q0 14 -3 31q15 8 25.5 28.5t10.5 42.5
q0 21 -10 38q30 28 30 67q0 35 -20 57h185q29 0 50.5 21.5t21.5 49.5t-22 50t-50 22h-321q0 16 27 58q26 38 26 85q0 71 -89 71q-13 0 -50 -77q-36 -65 -83 -118q-37 -42 -57 -59q-40 -32 -78 -32h-18v-357z" />
    <glyph glyph-name="uni261F" unicode="&#x261f;" horiz-adv-x="887" 
d="M158 189q-66 0 -104.5 45.5t-38.5 115.5q0 23 12.5 42.5t25.5 28.5t35 21l74 39q48 30 106 86q6 6 22 26q11 15 11 25v161q0 29 21 50t50 21h357q29 0 50.5 -21t21.5 -50v-161q0 -34 33 -125q38 -104 38 -176q0 -80 -43.5 -129t-120.5 -48h-3q-41 -34 -100 -34
q-8 0 -24 2q-30 -16 -66 -21v-94q0 -58 -42.5 -100.5t-100.5 -42.5q-57 0 -100 43t-43 100v209q-33 -13 -71 -13zM86 350q0 -89 72 -89q18 0 35.5 5t28.5 10.5t28 15.5l24 14q15 8 27 8v-321q0 -28 21.5 -50t49.5 -22t50 21.5t22 50.5v185q26 -20 57 -20q37 0 66 30
q17 -10 39 -10t42 10.5t28 25.5q18 -2 32 -2q93 0 93 102q0 46 -18 102l-36 109q-18 53 -18 93v18h-357v-18q0 -48 -43 -91q-25 -25 -48 -44q-63 -56 -131 -89q-42 -20 -57 -34q-7 -7 -7 -10zM658 743q0 -14 11 -25t25 -11t24.5 11t10.5 25t-10.5 25t-24.5 11t-25 -11
t-11 -25z" />
    <glyph glyph-name="uni2630" unicode="&#x2630;" horiz-adv-x="927" 
d="M914 706h-900v144h900v-144zM914 454h-900v144h900v-144zM914 202h-900v144h900v-144zM914 94v-144h-900v144h900z" />
    <glyph glyph-name="sun" unicode="&#x263c;" horiz-adv-x="896" 
d="M53 276l30 9q54 19 80 19q51 0 51 -49q0 -31 -36 -45l-30 -10q-59 -25 -80 -25q-50 0 -50 50q0 36 35 51zM68 525q4 0 16.5 -2.5t18.5 -2.5q3 0 19 -8l26 -12l30 -10q36 -20 36 -45q0 -49 -51 -49q-21 0 -35 4q-10 9 -45 15l-30 9q-35 15 -35 51q0 50 50 50zM188 85
q4 3 13.5 15t12.5 15l19 20q14 19 39 19q51 0 51 -49q0 -25 -30 -55q-5 -10 -25 -30l-15 -25q-19 -19 -39 -19q-51 0 -51 49q0 24 25 60zM214 724q20 0 39 -19l15 -25q20 -20 25 -30q30 -30 30 -55q0 -49 -51 -49q-25 0 -39 19l-19 20q-3 3 -12.5 15t-13.5 15q-25 51 -25 60
q0 49 51 49zM448 550q79 0 139.5 -60.5t60.5 -139.5q0 -90 -60 -140q-60 -60 -140 -60q-89 0 -140 60q-60 50 -60 140q0 80 60 140q51 60 140 60zM348 350q0 -40 30 -70t69.5 -30t70 30t30.5 70t-30.5 70t-70 30t-69.5 -30t-30 -70zM398 50q0 50 50 50t50 -50v-100
q0 -50 -50 -50t-50 50v100zM398 750q0 50 50 50t50 -50v-100q0 -50 -50 -50t-50 50v100zM623 154q26 0 41 -19l19 -20q3 -3 13 -15t12 -15q25 -51 25 -60q0 -49 -50 -49q-21 0 -40 19l-20 25q-4 4 -10.5 15t-8.5 15q-32 31 -32 55q0 49 51 49zM604 650q2 2 8.5 14t10.5 16
l20 25q19 19 40 19q50 0 50 -49q0 -19 -15 -35q-16 -28 -29 -45l-25 -30q-15 -19 -41 -19q-51 0 -51 49q0 24 32 55zM828 175q-4 0 -16.5 2.5t-18.5 2.5q-3 0 -20 8l-25 12l-30 10q-35 14 -35 45q0 49 50 49q21 0 30 -4q12 0 30 -5q10 -10 21 -10l28 -9q36 -15 36 -51
q0 -50 -50 -50zM683 445q0 31 35 45l30 10q58 25 80 25q50 0 50 -50q0 -36 -36 -51l-28 -9q-44 -19 -81 -19q-50 0 -50 49z" />
    <glyph glyph-name="uni263D" unicode="&#x263d;" horiz-adv-x="850" 
d="M539 238q105 105 125 252q19 145 -53 270q53 -26 96 -72q128 -128 128 -309t-128 -309t-310 -128t-310 128q-41 41 -72 94q124 -70 271 -51q148 20 253 125z" />
    <glyph glyph-name="uni263E" unicode="&#x263e;" horiz-adv-x="928" 
d="M182 585q-52 -82 -52 -181q0 -141 100.5 -242.5t243.5 -101.5q98 0 181 53q-187 18 -321 151.5t-152 320.5zM348 841q-56 -100 -56 -205q0 -172 121.5 -293t292.5 -121q105 0 205 56q-42 -145 -162.5 -237.5t-274.5 -92.5q-188 0 -322 133.5t-134 322.5q0 154 92.5 274.5
t237.5 162.5z" />
    <glyph glyph-name="uni2661" unicode="&#x2661;" horiz-adv-x="983" 
d="M970 538q0 -258 -479 -588q-477 330 -477 588v54q0 114 72 186q74 72 186 72q74 0 120 -27q46 -26 99 -89q55 63 100 89q48 27 120 27q113 0 186 -72t73 -186v-54zM865 542v45q0 52 -35 103q-23 32 -48.5 44t-70.5 12q-49 0 -75 -17q-27 -18 -64 -62l-81 -94l-80 94
q-37 44 -65 62q-26 17 -74 17q-44 0 -70 -11.5t-47 -43.5q-34 -50 -37 -104v-45q0 -26 15 -67q61 -179 358 -397q296 214 359 397q15 43 15 67z" />
    <glyph glyph-name="heart" unicode="&#x2665;" horiz-adv-x="983" 
d="M711 850q113 0 186 -72t73 -186v-54q0 -258 -479 -588q-477 330 -477 588v54q0 114 72 186q74 72 186 72q74 0 120 -27q46 -26 99 -89q55 63 100 89q48 27 120 27z" />
    <glyph glyph-name="musicalnote" unicode="&#x266a;" horiz-adv-x="612" 
d="M396 820q0 -42 46 -97q43 -52 90 -100q45 -46 61 -119q17 -74 -39 -154q-20 -35 -26 -16q-1 6 0 16q11 18 6 56q-5 42 -13 78q-10 42 -45 74.5t-80 39.5v-536q2 -56 -41.5 -100.5t-100.5 -65.5q-72 -28 -143 -8q-69 20 -89 76q-20 57 20 115q42 60 116 85q85 30 158 4
v652h80z" />
    <glyph glyph-name="musicalnotedbl" unicode="&#x266b;" horiz-adv-x="686" 
d="M18 100q0 60 50 80q57 25 100 20v440l500 105v-555q-4 -34 -45 -66q-37 -24 -81 -24q-45 0 -84 30q-40 27 -40 70q0 61 50 80q40 30 100 20v320l-300 -60v-470q-11 -46 -45 -65q-39 -25 -80 -25q-47 0 -85 30q-40 25 -40 70z" />
    <glyph glyph-name="uni268F" unicode="&#x268f;" horiz-adv-x="927" 
d="M914 706h-396v144h396v-144zM914 454h-396v144h396v-144zM914 202h-396v144h396v-144zM410 454h-396v396h396v-396zM302 562v180h-180v-180h180zM914 -50h-396v144h396v-144zM410 -50h-396v396h396v-396zM122 58h180v180h-180v-180z" />
    <glyph glyph-name="uni2691" unicode="&#x2691;" horiz-adv-x="686" 
d="M18 680q0 70 70 70h9q71 0 71 -70v-660q0 -70 -71 -70h-9q-70 0 -70 70v660zM218 300v380h50q99 0 150 -40t150 -40h100v-400h-100q-100 0 -150 50t-150 50h-50z" />
    <glyph glyph-name="uni2692" unicode="&#x2692;" 
d="M170 506q-14 -14 -14 -47q0 -11 -2 -11q-1 -1 -18 -16t-18 -16q-16 -13 -28 4l-70 76q-3 4 -4 8t-0.5 7t4 6.5t6 5.5t7.5 5.5t7 5.5q15 11 20 16q6 6 27 6q22 0 36.5 14.5t18.5 37.5q5 25 10 30q2 0 9 7q18 18 67 53q134 90 186 96q114 0 148 -2q13 0 -8 -8
q-123 -54 -152 -76q-80 -56 -36 -114q35 -47 38 -48q8 -8 -2 -14q-8 -8 -38 -35t-38 -35q-14 -8 -18 -4q-42 48 -71 60t-67 -12zM866 4q17 -22 -2 -38l-48 -42q-22 -13 -38 4l-414 472q-8 8 0 20l72 62q13 8 20 -2zM994 516q-49 -88 -154 -62q-56 12 -100 -32l-82 -78
l-68 78l68 70q40 40 37 118q-1 34 5 58q12 56 140 112q12 6 18 -3t2 -15q-10 -10 -46 -80q-13 -10 -12 -35q1 -24 40 -53q58 -40 96 22q2 4 24.5 38t23.5 36q4 10 13 9q10 -2 11 -17q16 -103 -16 -166zM152 -2l254 248l76 -86l-246 -242q-20 -20 -38 -4l-46 46q-23 18 0 38z
" />
    <glyph glyph-name="uni2699" unicode="&#x2699;" horiz-adv-x="927" 
d="M914 465v-128l-167 -23l-19 -45l108 -142l-92 -90l-143 107q-18 -10 -46 -19l-27 -175h-128l-25 177q-17 7 -38 17l-145 -108l-91 90l109 144q-12 25 -17 42l-179 25v128l179 25q8 22 17 40l-108 144l91 90l144 -108q16 9 42 18l25 176h129l25 -176q23 -8 43 -17l142 106
l92 -90l-107 -141q9 -18 18 -43zM600 400q0 53 -39 91.5t-92 38.5t-92 -38.5t-39 -91.5t39 -91.5t92 -38.5t92 38.5t39 91.5z" />
    <glyph glyph-name="uni26A0" unicode="&#x26a0;" horiz-adv-x="1028" 
d="M1015 22q0 -34 -24 -53t-61 -19h-831q-37 0 -61 19t-24 53q0 27 16 55l415 723q29 50 69.5 50t68.5 -50l416 -724q16 -29 16 -54zM577 613h-125v-131q0 -14 12 -73l23 -146h53l24 146q13 60 13 73v131zM577 134q0 25 -18.5 43.5t-44.5 18.5t-44 -18.5t-18 -43.5
q0 -26 18.5 -44.5t43.5 -18.5q26 0 44.5 18.5t18.5 44.5z" />
    <glyph glyph-name="uni26A1" unicode="&#x26a1;" horiz-adv-x="536" 
d="M18 396l376 404l-126 -350l250 -146l-375 -404l125 350z" />
    <glyph glyph-name="uni26AB" unicode="&#x26ab;" horiz-adv-x="730" 
d="M365 700q146 0 248 -102t102 -248q0 -144 -102 -247t-248 -103t-248 103t-102 247q0 146 102 248t248 102z" />
    <glyph glyph-name="uni26BF" unicode="&#x26bf;" horiz-adv-x="928" 
d="M632.5 729q-69.5 0 -119 -48.5t-49.5 -117.5q0 -14 4 -32l11 -57l-175 -174l-174 -174v-66h111v111h112v112h111v47l80 79l57 -11q18 -3 31 -3q70 0 118.5 49t48.5 118.5t-48.5 118t-118 48.5zM632.5 841q115.5 0 197 -81.5t81.5 -197t-81.5 -197.5t-197.5 -82
q-28 0 -51 5l-5 -5v-112h-112v-111h-111v-112h-335v223l340 340q-5 23 -5 52q0 115 82 196.5t197.5 81.5zM576 563q0 55 56 55t56 -55q0 -57 -56 -57t-56 57z" />
    <glyph glyph-name="uni26C6" unicode="&#x26c6;" horiz-adv-x="928" 
d="M688 674q92 0 157.5 -65.5t65.5 -157.5t-65.5 -157.5t-157.5 -65.5h-447q-92 0 -157.5 65.5t-65.5 157.5t65.5 157.5t157.5 65.5q1 0 30 -3q30 52 81 83.5t112 31.5q60 0 112.5 -32t81.5 -83q28 3 30 3zM688 339q45 0 78 33t33 79t-33 79t-78.5 33t-78.5 -33t-33 -79
h-112q0 109 90 178q-33 45 -90 45q-45 0 -78 -33t-33 -78q0 -22 7 -40l-104 -38q-15 36 -15 75q-44 -1 -77.5 -33t-33.5 -76q0 -46 33 -79t78 -33h447zM109 20q-15 -15 -37.5 -15t-38 15.5t-15.5 37.5t16 38q9 9 47 28t71 33l34 14q-56 -130 -77 -151zM332 20
q-15 -15 -36.5 -15t-38.5 15q-16 16 -16 38t16 38q9 9 47.5 28t72.5 33l32 14q-55 -130 -77 -151zM556 20q-16 -15 -38 -15t-38 15.5t-16 37.5t16 38q10 9 47.5 28t71.5 33l33 14q-56 -130 -76 -151z" />
    <glyph glyph-name="uni26C8" unicode="&#x26c8;" 
d="M481 676q92 0 161.5 -53.5t92.5 -132.5q25 4 40 4q99 0 170 -68q70 -67 70 -166t-70 -166q-71 -68 -170 -68h-578q-73 0 -127.5 52t-54.5 124q0 74 53.5 126t128.5 52q1 0 10 -1t10 -1q-2 16 -2 38q0 108 78 184q77 76 188 76zM583 278q14 17 14 30q0 20 -30 32h-4
q-28 15 -38 16l50 116q6 0 6 20q0 19 -15 21t-27 -11l-26 -27l-36 -39l-29 -32q-35 -38 -45 -52q-12 -18 -12 -30q0 -22 30 -30q6 -3 42 -18l-52 -114q-4 -12 -4 -22t8 -18q17 -10 34 10q98 98 134 148z" />
    <glyph glyph-name="uni26EF" unicode="&#x26ef;" horiz-adv-x="1101" 
d="M15 402q0 15 13 17l86 14q6 19 18 42q-23 32 -50 64q-4 5 -4 11q0 7 4 11q11 15 45 49t45 34q7 0 12 -4l64 -50q20 11 43 18q5 53 13 86q4 13 16 13h104q15 0 17 -14l13 -85q22 -7 41 -17l66 49q4 4 11 4t12 -4q81 -73 81 -90q0 -5 -4 -10l-23 -30q-21 -27 -26 -34
q13 -25 19 -46l85 -12q13 -2 13 -17v-103q0 -15 -13 -17l-86 -14q-6 -19 -18 -42q23 -32 50 -64q4 -5 4 -11q0 -7 -4 -11q-14 -17 -46.5 -50t-43.5 -33q-6 0 -11 4l-64 50q-24 -12 -43 -17q-6 -55 -13 -87q-4 -13 -17 -13h-104q-14 0 -16 14l-13 85q-24 7 -42 17l-66 -49
q-4 -4 -11 -4t-12 4q-80 73 -80 90q0 5 4 10l24 32l25 32q-14 25 -20 46l-85 13q-13 2 -13 16v103zM229 350q0 -58 42.5 -100.5t100.5 -42.5t100.5 42.5t42.5 100.5t-42.5 100.5t-100.5 42.5t-100.5 -42.5t-42.5 -100.5zM855 -77q-5 -9 -27 -37t-27 -28l-7 4l-26 15l-36 21
q-3 3 -3 4q0 13 29 77q-11 14 -17 29q-83 9 -83 17v78q0 9 83 18q5 11 17 29q-29 64 -29 77q0 2 1 3.5t3 2.5t4.5 2t6.5 3t7 4l16 10q11 6 17 9q15 9 17 9q5 0 27 -28t27 -36q7 1 17 1t17 -1q33 45 51 63l4 1q2 0 69 -39q2 -2 2 -4q0 -15 -28 -77q9 -13 16 -29q83 -9 83 -18
v-78q0 -8 -83 -17q-7 -17 -16 -29q28 -62 28 -77q0 -2 -2 -4l-37 -21l-25 -15l-7 -4q-5 0 -27.5 28.5t-27.5 36.5q-14 -2 -17 -2t-17 2zM855 494q-5 -8 -27 -36t-27 -28q-1 0 -69 39q-3 3 -3 4q0 13 29 77q-11 14 -17 29q-83 9 -83 18v78q0 8 83 17q5 11 17 29
q-29 64 -29 77q0 2 1 3.5t3 2.5t4.5 2t6.5 3t7 4l16 9q11 7 17 10q15 9 17 9q5 0 27 -28t27 -36q14 2 17 2t17 -2q33 45 51 63l4 1q2 0 69 -39q2 -2 2 -4q0 -15 -28 -77q9 -13 16 -29q83 -9 83 -17v-78q0 -9 -83 -18q-7 -17 -16 -29q28 -62 28 -77q0 -2 -2 -4
q-67 -39 -69 -39q-5 0 -27.5 28t-27.5 36q-7 -1 -17 -1t-17 1zM801 64q0 -29 21 -50t50 -21t50.5 21t21.5 50q0 28 -22 50t-50 22t-49.5 -21.5t-21.5 -50.5zM801 636q0 -29 21 -50.5t50 -21.5t50.5 21.5t21.5 50.5q0 28 -21.5 49.5t-50.5 21.5q-28 0 -49.5 -21.5
t-21.5 -49.5z" />
    <glyph glyph-name="uni2702" unicode="&#x2702;" horiz-adv-x="846" 
d="M43 696q29 28 70 28q72 0 126 -109q38 -81 59 -105q31 -52 85 -95q47 41 85 101q52 72 65 99q24 42 50 81q43 34 70 34q29 0 50 -15q49 35 79 35q32 0 46 -20l-35 5q-39 -14 -60 -50q19 -24 19 -65q0 -42 -30 -80q-34 -35 -74 -35q-31 0 -76 30l-9 11q-25 0 -125 -191
q7 0 76 -79q67 -78 99 -131q35 -58 35 -100q0 -50 -30 -95l-235 315l-231 -315q-30 45 -30 95q0 49 36 100q12 25 95 131l75 79l-5 5l-12 25q-9 18 -18 25q-11 25 -51 90q-25 40 -34 40q-6 0 -30 -20q-32 -20 -56 -20q-43 0 -74 40q-30 30 -30 75q0 41 25 81zM193 604
q0 28 -24.5 54.5t-50.5 26.5q-60 0 -60 -65q0 -74 70 -74q26 0 45.5 17t19.5 41zM578 610q0 -25 18 -42.5t47 -17.5q31 0 51 20q19 30 19 50q0 65 -60 65q-36 0 -55 -19q-20 -24 -20 -56z" />
    <glyph glyph-name="uni2707" unicode="&#x2707;" 
d="M948 513q67 -67 67 -163q0 -95 -67 -162q-68 -68 -163 -68h-540q-94 0 -162 68t-68 162q0 95 68 163q67 67 162 67q96 0 163 -67t67 -163q0 -72 -40 -130h160q-40 64 -40 130q0 95 68 163q67 67 162 67q96 0 163 -67zM115 350q0 -52 38.5 -91t91.5 -39t91.5 39t38.5 91
q0 53 -38.5 91.5t-91.5 38.5t-91.5 -38.5t-38.5 -91.5zM785 220q53 0 91.5 39t38.5 91q0 53 -38.5 91.5t-91.5 38.5t-91.5 -38.5t-38.5 -91.5q0 -52 38.5 -91t91.5 -39z" />
    <glyph glyph-name="uni2708" unicode="&#x2708;" horiz-adv-x="810" 
d="M15 260q0 8 5 13l36 36q5 5 13 5q5 0 140 -38l137 137l-321 153q-10 4 -10 16q0 8 5 13l36 36q5 5 13 5h1l2 -1l416 -80l134 134q83 83 132 83q18 0 29.5 -11t11.5 -29q0 -48 -84 -132l-133 -134l79 -416l1 -4q0 -7 -5 -12l-36 -36q-5 -5 -13 -5q-12 0 -16 10l-153 321
l-137 -137q38 -135 38 -141q0 -7 -5 -12l-35 -36q-5 -5 -13 -5q-10 0 -16 9l-86 156l-157 87q-9 5 -9 15z" />
    <glyph glyph-name="uni2709" unicode="&#x2709;" horiz-adv-x="1252" 
d="M14 753q0 39 27.5 67t66.5 28h1037q39 0 66.5 -28t27.5 -67v-706q0 -39 -27.5 -67t-66.5 -28h-1037q-39 0 -66.5 28t-27.5 67v706zM626 326l457 380h-913zM155 94h943v502l-445 -371h-55l-443 371v-502z" />
    <glyph glyph-name="uni270D" unicode="&#x270d;" horiz-adv-x="901" 
d="M109 -4h443v262l90 101v-453h-623v760h541l-75 -77h-376v-593zM855 645l-57 -56l17 75l-64 64l-73 -17l56 57q26 26 62 26t62 -25t24.5 -61t-27.5 -63zM639 670q0 4 75 22l1 2l66 -69l-22 -75l-371 -384l-159 -36l-3 1l42 158zM391 248l-45 46l-35 -6l-22 -22l-10 -40
l46 -45l39 9l22 22z" />
    <glyph glyph-name="uni270E" unicode="&#x270e;" horiz-adv-x="867" 
d="M810 566l-46 -46q4 6 7.5 17t-4.5 43t-41 64q-28 28 -59 37t-47 4l-18 -5l49 49q33 33 82 34t81 -32q36 -35 34 -82t-38 -83zM725 481l-493 -492l-210 -51l-3 3l55 210l492 490q30 9 60 3l-522 -523l-15 -55l60 -60l56 15l25 24l2 56l-40 40l479 479q8 -6 15 -15
q32 -31 42 -62t3 -45z" />
    <glyph glyph-name="uni270F" unicode="&#x270f;" horiz-adv-x="928" 
d="M846 776q66 -66 66 -157.5t-66 -157.5l-512 -513h-316l1 317l511 511q66 66 158 66t158 -66zM287 60q32 32 32 79t-32.5 79.5t-79 32.5t-79.5 -33v-158h159zM764 539q33 32 33 79t-32.5 79t-78.5 32t-79 -32z" />
    <glyph glyph-name="uni2710" unicode="&#x2710;" horiz-adv-x="735" 
d="M322 310l60 118l227 224q23 -14 33 -24q12 -12 27 -36l-227 -224l-117 -60zM19 8l112 442l238 238q80 22 165 0l-206 -206l-150 -77l-33 -177l97 -98l177 32l77 150l209 210q11 -46 10.5 -83.5t-6.5 -60.5l-7 -26l-236 -237l-445 -113z" />
    <glyph glyph-name="uni2712" unicode="&#x2712;" horiz-adv-x="728" 
d="M75 -138q-6 -20 -26 -8q-18 7 -16 34q5 103 50 226q-100 154 -52 316q24 -79 76 -158q22 -34 32 -30q7 4 0 83q-8 88 -11 166q-3 88 25 157q24 47 80 94q62 52 104 70q-24 -47 -33 -94q-19 -105 17 -110q12 0 84 120q72 121 106 122q46 4 114 -29t82 -65q12 -24 0 -79
t-40 -83q-44 -44 -146 -62t-114 -24q-16 -10 12 -34q55 -48 176 -20q-55 -79 -136 -114q-77 -33 -132 -38q-53 -5 -54 -10q-4 -23 49 -54q53 -30 101 -14q-30 -56 -63 -84q-34 -29 -52.5 -35t-77.5 -11q-69 -6 -85 -8z" />
    <glyph glyph-name="uni2713" unicode="&#x2713;" horiz-adv-x="1088" 
d="M1075 786q-225 -200 -540 -675l-104 -161q-129 162 -417 450l96 96l257 -225q324 324 555 513q54 44 69 53l19 13q4 0 7 -0.5t6.5 -2.5t5 -3.5t6.5 -6t8 -7.5q16 -15 32 -44z" />
    <glyph glyph-name="uni2714" unicode="&#x2714;" horiz-adv-x="927" 
d="M464 850q129 0 230.5 -63t158.5 -161q61 -104 61 -226q0 -130 -63 -231t-162 -159q-103 -60 -225 -60q-130 0 -231.5 63t-158.5 161q-60 104 -60 226q0 130 63 231t161 159q103 60 226 60zM248 448l-49 -48q119 -119 189 -201l20 -23q110 180 231 323q46 54 89 94
q-16 31 -32 31q-8 -4 -29 -20q-18 -13 -102 -87q-78 -69 -190 -181z" />
    <glyph glyph-name="uni2715" unicode="&#x2715;" horiz-adv-x="927" 
d="M602 400l312 -311l-139 -139l-311 311l-312 -311l-138 139l311 311l-311 311l138 139l312 -311l311 311l139 -139z" />
    <glyph glyph-name="uni2716" unicode="&#x2716;" horiz-adv-x="927" 
d="M914 400q0 -130 -63 -231t-162 -159q-103 -60 -225 -60q-130 0 -231.5 63t-158.5 161q-60 104 -60 226q0 130 63 231t161 159q103 60 226 60q129 0 230.5 -63t158.5 -161q61 -104 61 -226zM608 191l64 64l-145 145l145 145l-64 64l-144 -145l-145 145l-64 -64l145 -145
l-145 -145l64 -64l145 145z" />
    <glyph glyph-name="uni2731" unicode="&#x2731;" horiz-adv-x="827" 
d="M18 221q7 28 33 43l148 86l-148 86q-23 14 -32 41t6 57l35 61q14 23 41 32t57 -6l148 -85v171q0 29 22 50.5t50 21.5h71q29 0 50.5 -21.5t21.5 -50.5v-171l148 85q30 15 57 6t41 -32l35 -61q15 -30 6 -57t-32 -41l-148 -86l148 -86q23 -14 32 -41t-6 -57l-35 -61
q-14 -23 -41 -32t-57 6l-148 85v-171q0 -29 -21.5 -50.5t-50.5 -21.5h-71q-28 0 -50 21.5t-22 50.5v171l-148 -85q-30 -15 -57 -6t-41 32l-35 61q-15 25 -7 55z" />
    <glyph glyph-name="uni274E" unicode="&#x274e;" horiz-adv-x="830" 
d="M715 750q42 0 71 -29t29 -71v-600q0 -41 -29.5 -70.5t-70.5 -29.5h-600q-40 0 -70 30t-30 70v600q0 41 29.5 70.5t70.5 29.5h600zM569 112l86 86l-154 152l154 154l-86 86l-154 -152l-152 152l-88 -86l154 -154l-154 -152l88 -86l152 152z" />
    <glyph glyph-name="uni2753" unicode="&#x2753;" horiz-adv-x="531" 
d="M364 500q0 40 -31 70t-70 30q-35 0 -62 -23t-33 -52q-5 -19 -25 -50q-11 -25 -49 -25q-35 0 -56 20q-20 26 -20 55q0 95 76 160q81 65 169 65q111 0 175 -75q76 -65 76 -175q0 -90 -71 -140q-130 -96 -130 -160h-150v25q0 71 28.5 105t94.5 73q49 27 62 47q16 21 16 50z
M143 25q0 35 30 65q19 25 65 25q39 0 64.5 -25.5t25.5 -64.5q0 -45 -26 -65q-30 -30 -64 -30t-64.5 30t-30.5 65z" />
    <glyph glyph-name="uni2757" unicode="&#x2757;" horiz-adv-x="887" 
d="M15 350q0 123 60 219.5t153 151.5q101 58 216 58q123 0 219.5 -60t151.5 -154q57 -99 57 -215q0 -123 -60 -219.5t-153 -151.5q-101 -58 -215 -58q-123 0 -220 60t-152 154q-57 99 -57 215zM382 636q-7 0 -13 -4.5t-6 -10.5l10 -346q0 -6 6 -10t13 -4h103q17 0 19 14
l10 346q0 6 -6 10.5t-13 4.5h-123zM372 83q0 -7 6 -13t13 -6h107q7 0 12 5.5t5 13.5v106q0 18 -17 18h-107q-8 0 -13.5 -5.5t-5.5 -12.5v-106z" />
    <glyph glyph-name="uni275B" unicode="&#x275b;" horiz-adv-x="928" 
d="M911 60h-335v335l335 334v-669zM353 60h-335v335l335 334v-669z" />
    <glyph glyph-name="uni275C" unicode="&#x275c;" horiz-adv-x="928" 
d="M18 729h335v-334l-335 -335v669zM576 729h335v-334l-335 -335v669z" />
    <glyph glyph-name="uni275D" unicode="&#x275d;" horiz-adv-x="928" 
d="M911 60h-335v335q0 139 98.5 236.5t236.5 97.5v-111q-93 0 -158 -65.5t-65 -157.5h223v-335zM353 60h-335v335q0 139 98 236.5t237 97.5v-111q-93 0 -158 -65.5t-65 -157.5h223v-335z" />
    <glyph glyph-name="uni275E" unicode="&#x275e;" horiz-adv-x="928" 
d="M18 729h335v-334q0 -140 -98.5 -237.5t-236.5 -97.5v111q92 0 157.5 65.5t65.5 158.5h-223v334zM576 729h335v-334q0 -140 -98 -237.5t-237 -97.5v111q92 0 157.5 65.5t65.5 158.5h-223v334z" />
    <glyph glyph-name="uni2795" unicode="&#x2795;" horiz-adv-x="927" 
d="M914 400q0 -130 -63 -231t-162 -159q-103 -60 -225 -60q-130 0 -231.5 63t-158.5 161q-60 104 -60 226q0 130 63 231t161 159q103 60 226 60q129 0 230.5 -63t158.5 -161q61 -104 61 -226zM518 348h211v106h-211v212h-107v-212h-212v-106h212v-213h107v213z" />
    <glyph glyph-name="uni2796" unicode="&#x2796;" horiz-adv-x="927" 
d="M914 400q0 -130 -63 -231t-162 -159q-103 -60 -225 -60q-130 0 -231.5 63t-158.5 161q-60 104 -60 226q0 130 63 231t161 159q103 60 226 60q129 0 230.5 -63t158.5 -161q61 -104 61 -226zM199 348h530v106h-530v-106z" />
    <glyph glyph-name="uni27A1" unicode="&#x27a1;" horiz-adv-x="760" 
d="M365 680l380 -330l-380 -330v192h-350v278h350v190z" />
    <glyph glyph-name="uni27A2" unicode="&#x27a2;" horiz-adv-x="790" 
d="M18 370q0 9 20 15l705 311q30 14 30 -6q0 -10 -5 -20l-355 -710q-5 -14 -15 -14q-15 0 -15 19l-35 251q-11 45 -55 64l-255 70q-20 6 -20 20z" />
    <glyph glyph-name="uni27A6" unicode="&#x27a6;" horiz-adv-x="1093" 
d="M14 563h615v287l451 -451l-451 -449v284h-615v329z" />
    <glyph glyph-name="uni27F2" unicode="&#x27f2;" horiz-adv-x="887" 
d="M15 457v250q0 22 22 32t39 -7l72 -72q126 119 296 119q90 0 168.5 -35t134.5 -91q55 -55 90 -133.5t35 -169.5t-35 -169.5t-90 -133.5q-56 -56 -134.5 -91t-168.5 -35q-106 0 -192.5 45t-144.5 117q-59 76 -82 174q-1 8 4.5 15t13.5 7h111q13 0 17 -13q27 -86 100.5 -144
t172.5 -58q118 0 202 84q83 83 83 202t-83 202q-84 84 -202 84q-113 0 -195 -77l77 -77q17 -17 7 -39t-32 -22h-250q-14 0 -25 11t-11 25z" />
    <glyph glyph-name="uni27F3" unicode="&#x27f3;" horiz-adv-x="673" 
d="M542 265h113q0 -133 -93 -225q-92 -95 -224.5 -95t-225.5 95q-93 94 -93 225q0 129 93 225q96 92 223 92l-40 173l330 -227l-317 -243l28 185q-85 -1 -145 -60.5t-60 -144.5t60.5 -146t145.5 -61t145 61t60 146z" />
    <glyph glyph-name="uni2935" unicode="&#x2935;" horiz-adv-x="928" 
d="M799 339v-56h112l-223 -223l-224 223h112v56q0 116 -81.5 197.5t-197 81.5t-197.5 -81.5t-82 -197.5q0 162 114.5 276t276.5 114t276 -114t114 -276z" />
    <glyph glyph-name="uni2B05" unicode="&#x2b05;" horiz-adv-x="760" 
d="M393 20l-378 330l378 330v-190h352v-278h-352v-192z" />
    <glyph glyph-name="uni2B06" unicode="&#x2b06;" horiz-adv-x="690" 
d="M675 336h-192v-350h-276v350h-192l330 380z" />
    <glyph glyph-name="uni2B07" unicode="&#x2b07;" horiz-adv-x="690" 
d="M675 366l-330 -380l-330 380h192v350h276v-350h192z" />
    <glyph glyph-name="uni2B0C" unicode="&#x2b0c;" horiz-adv-x="370" 
d="M241 283v-167h112l-167 -168l-168 168h112v167h111zM130 506v168h-112l168 167l167 -167h-112v-168h-111z" />
    <glyph glyph-name="uni2B0D" unicode="&#x2b0d;" horiz-adv-x="928" 
d="M353 339h-167v-111l-168 167l168 168v-112h167v-112zM576 451h168v112l167 -168l-167 -167v111h-168v112z" />
    <glyph glyph-name="uni2ECF" unicode="&#x2ecf;" horiz-adv-x="889" 
d="M52 -7q-14 0 -25 11t-11 25v142q0 14 11 25t25 11h785q14 0 25 -11t11 -25v-142q0 -14 -11 -25t-25 -11h-785zM16 286q-3 8 7 18l396 396q10 10 25 10t25 -10l397 -396q10 -10 7 -17.5t-18 -7.5h-821q-15 0 -18 7z" />
    <glyph glyph-name="uniE003" unicode="&#xe003;" 
d="M365 400q21 0 35.5 -15t14.5 -35t-15.5 -35t-34.5 -15h-300q-19 0 -34.5 15t-15.5 35t14.5 35t35.5 15h300zM365 200q21 0 35.5 -15t14.5 -35t-15.5 -35t-34.5 -15h-300q-19 0 -34.5 15t-15.5 35t14.5 35t35.5 15h300zM1015 350q0 -50 -30 -50h-170v-170q0 -30 -50 -30
t-50 30v170h-164q-30 0 -30 50t30 50h164v170q0 30 50 30t50 -30v-170h170q30 0 30 -50zM365 600q21 0 35.5 -15t14.5 -35t-15.5 -35t-34.5 -15h-300q-19 0 -34.5 15t-15.5 35t14.5 35t35.5 15h300z" />
    <glyph glyph-name="uniE005" unicode="&#xe005;" horiz-adv-x="730" 
d="M115 200q19 0 34.5 -15t15.5 -35t-15.5 -35t-34.5 -15h-50q-19 0 -34.5 15t-15.5 35t14.5 35t35.5 15h50zM115 400q19 0 34.5 -15t15.5 -35t-15.5 -35t-34.5 -15h-50q-19 0 -34.5 15t-15.5 35t14.5 35t35.5 15h50zM115 600q19 0 34.5 -15t15.5 -35t-15.5 -35t-34.5 -15
h-50q-19 0 -34.5 15t-15.5 35t14.5 35t35.5 15h50zM315 500q-19 0 -34.5 15t-15.5 35t15.5 35t34.5 15h350q21 0 35.5 -15t14.5 -35t-15.5 -35t-34.5 -15h-350zM665 400q21 0 35.5 -15t14.5 -35t-15.5 -35t-34.5 -15h-350q-19 0 -34.5 15t-15.5 35t15.5 35t34.5 15h350z
M665 200q21 0 35.5 -15t14.5 -35t-15.5 -35t-34.5 -15h-350q-19 0 -34.5 15t-15.5 35t15.5 35t34.5 15h350z" />
    <glyph glyph-name="uniE048" unicode="&#xe048;" horiz-adv-x="928" 
d="M464.5 841q184.5 0 315.5 -131t131 -315.5t-131 -315.5t-315.5 -131t-315.5 131t-131 315.5t131 315.5t315.5 131zM298 171l446 224l-446 223v-447z" />
    <glyph glyph-name="uniE4A1" unicode="&#xe4a1;" horiz-adv-x="927" 
d="M914 400q0 -130 -63 -231t-162 -159q-103 -60 -225 -60q-130 0 -231.5 63t-158.5 161q-60 104 -60 226q0 130 63 231t161 159q103 60 226 60q129 0 230.5 -63t158.5 -161q61 -104 61 -226zM506 191l64 64l-145 145l145 145l-64 64l-210 -209z" />
    <glyph glyph-name="uniE4A2" unicode="&#xe4a2;" horiz-adv-x="927" 
d="M914 400q0 -130 -63 -231t-162 -159q-103 -60 -225 -60q-130 0 -231.5 63t-158.5 161q-60 104 -60 226q0 130 63 231t161 159q103 60 226 60q129 0 230.5 -63t158.5 -161q61 -104 61 -226zM421 191l210 209l-210 209l-64 -64l145 -145l-145 -145z" />
    <glyph glyph-name="uniE4A3" unicode="&#xe4a3;" horiz-adv-x="927" 
d="M914 400q0 -130 -63 -231t-162 -159q-103 -60 -225 -60q-130 0 -231.5 63t-158.5 161q-60 104 -60 226q0 130 63 231t161 159q103 60 226 60q129 0 230.5 -63t158.5 -161q61 -104 61 -226zM608 294l64 64l-208 209l-209 -209l64 -64l145 145z" />
    <glyph glyph-name="uniE4A4" unicode="&#xe4a4;" horiz-adv-x="927" 
d="M914 400q0 -130 -63 -231t-162 -159q-103 -60 -225 -60q-130 0 -231.5 63t-158.5 161q-60 104 -60 226q0 130 63 231t161 159q103 60 226 60q129 0 230.5 -63t158.5 -161q61 -104 61 -226zM464 233l208 209l-64 64l-144 -145l-145 145l-64 -64z" />
    <glyph glyph-name="uniE4AD" unicode="&#xe4ad;" horiz-adv-x="760" 
d="M393 730v-190h352v-378h-352v-192l-378 380z" />
    <glyph glyph-name="uniE4AE" unicode="&#xe4ae;" horiz-adv-x="760" 
d="M365 730l380 -380l-380 -380v192h-350v378h350v190z" />
    <glyph glyph-name="uniE4AF" unicode="&#xe4af;" horiz-adv-x="790" 
d="M775 336h-192v-350h-376v350h-192l380 380z" />
    <glyph glyph-name="uniE4B0" unicode="&#xe4b0;" horiz-adv-x="790" 
d="M775 366l-380 -380l-380 380h192v350h376v-350h192z" />
    <glyph glyph-name="uniE700" unicode="&#xe700;" horiz-adv-x="936" 
d="M18 300q0 105 65 150q19 19 69 30q50 15 81 15q18 5 85 5l-50 -50l50 -50h-76l-34 -4q-5 0 -20.5 -3t-19.5 -3q-13 -14 -25 -20q-25 -20 -25 -70q0 -40 30.5 -70t69.5 -30h500q39 0 69.5 30t30.5 69.5t-30.5 70t-69.5 30.5h-150v-150l-195 200l195 200v-150h85
q37 0 65 -5q28 0 60 -11l28 -9q21 -7 27 -10q38 -23 61.5 -66.5t23.5 -98.5q0 -80 -60.5 -140t-139.5 -60h-500q-79 0 -139.5 60t-60.5 140z" />
    <glyph glyph-name="uniE701" unicode="&#xe701;" horiz-adv-x="494" 
d="M15 489q0 22 31 26l280 40l126 254q11 23 27 23v-747l-250 -132q-12 -6 -23 -6q-23 0 -23 27q0 7 1 12l48 279l-203 197q-14 16 -14 27z" />
    <glyph glyph-name="uniE702" unicode="&#xe702;" horiz-adv-x="887" 
d="M15 350q0 123 60 219.5t153 151.5q101 58 216 58q123 0 219.5 -60t151.5 -154q57 -99 57 -215q0 -123 -60 -219.5t-153 -151.5q-101 -58 -215 -58q-123 0 -220 60t-152 154q-57 99 -57 215zM158 350q0 -118 84 -202t202 -84t202 84q83 83 83 202t-83 202q-84 84 -202 84
t-202 -84t-84 -202zM209 350q0 15 10 25l57 57q10 10 25 10t25 -10l82 -82l153 153q11 11 25 11q15 0 26 -11l56 -56q11 -11 11 -26q0 -14 -11 -25l-235 -235q-10 -10 -25 -10t-25 10l-164 164q-10 10 -10 25z" />
    <glyph glyph-name="uniE703" unicode="&#xe703;" horiz-adv-x="887" 
d="M15 350q0 123 60 219.5t153 151.5q101 58 216 58q123 0 219.5 -60t151.5 -154q57 -99 57 -215q0 -123 -60 -219.5t-153 -151.5q-101 -58 -215 -58q-123 0 -220 60t-152 154q-57 99 -57 215zM158 350q0 -118 84 -202t202 -84t202 84q83 83 83 202t-83 202q-84 84 -202 84
t-202 -84t-84 -202zM244 243q0 15 10 25l82 82l-82 82q-10 10 -10 25t10 25l57 57q10 10 25 10q16 0 26 -10l82 -82l82 82q10 10 25 10t25 -10l57 -57q10 -10 10 -25t-10 -25l-82 -82l82 -82q10 -10 10 -25t-10 -25l-57 -57q-10 -10 -25 -10t-25 10l-82 82l-82 -82
q-10 -10 -26 -10q-15 0 -25 10l-57 57q-10 10 -10 25z" />
    <glyph glyph-name="uniE704" unicode="&#xe704;" horiz-adv-x="887" 
d="M15 350q0 123 60 219.5t153 151.5q101 58 216 58q123 0 219.5 -60t151.5 -154q57 -99 57 -215q0 -123 -60 -219.5t-153 -151.5q-101 -58 -215 -58q-123 0 -220 60t-152 154q-57 99 -57 215zM229 444q0 -23 18 -23h107q8 0 13 5.5t5 12.5q0 6 6 15q23 39 66 39
q23 0 46.5 -12.5t23.5 -31.5q0 -31 -50 -57q-29 -15 -44.5 -25t-31.5 -33.5t-16 -54.5v-14q0 -13 2 -13q1 0 3.5 -4.5t4.5 -3.5q5 0 8 -1h107q16 0 18 19q1 23 28 37q42 23 59.5 37.5t34.5 44.5q21 36 21 76q0 55 -33 96.5t-80 61.5q-48 21 -101 21q-118 0 -182 -83
q-33 -42 -33 -96v-13zM372 82q0 -8 5 -13t13 -5h107q7 0 12.5 5t5.5 13v107q0 7 -5.5 12.5t-12.5 5.5h-107q-8 0 -13 -5.5t-5 -12.5v-107z" />
    <glyph glyph-name="uniE705" unicode="&#xe705;" horiz-adv-x="887" 
d="M15 350q0 123 60 219.5t153 151.5q101 58 216 58q123 0 219.5 -60t151.5 -154q57 -99 57 -215q0 -123 -60 -219.5t-153 -151.5q-101 -58 -215 -58q-123 0 -220 60t-152 154q-57 99 -57 215zM301 82q0 -8 5.5 -13t12.5 -5h250q17 0 17 18v36q0 18 -17 18h-54v268
q0 17 -18 17h-178q-18 0 -18 -17v-36q0 -8 5.5 -13t12.5 -5h53v-214h-53q-7 0 -12.5 -5t-5.5 -13v-36zM372 511q0 -7 5 -12.5t13 -5.5h107q7 0 12.5 5.5t5.5 12.5v107q0 8 -5.5 13t-12.5 5h-107q-8 0 -13 -5t-5 -13v-107z" />
    <glyph glyph-name="uniE708" unicode="&#xe708;" horiz-adv-x="927" 
d="M914 454h-396v396h396v-396zM806 562v180h-180v-180h180zM410 454h-396v396h396v-396zM302 562v180h-180v-180h180zM914 -50h-396v396h396v-396zM806 58v180h-180v-180h180zM410 -50h-396v396h396v-396zM122 58h180v180h-180v-180z" />
    <glyph glyph-name="uniE709" unicode="&#xe709;" horiz-adv-x="705" 
d="M409 841q115 0 197 -81.5t82 -196.5v-447q0 -69 -49 -118.5t-118 -49.5h-336q-70 0 -118.5 49.5t-48.5 118.5v390h558v57q0 69 -48.5 117.5t-118 48.5t-119 -48.5t-49.5 -117.5h-111q0 115 82 196.5t197 81.5zM521 60q23 0 39 16t16 40v279h-446v-279q0 -24 16 -40
t39 -16h336zM409 228q0 -23 -16 -40t-40 -17q-23 0 -39 16.5t-16 40.5q0 23 15.5 39t39.5 16t40 -16t16 -39z" />
    <glyph glyph-name="uniE70A" unicode="&#xe70a;" horiz-adv-x="1012" 
d="M994 350q-8 -14 -23 -37t-65 -82t-103 -103t-134 -81t-162.5 -37t-162 35t-137 85t-101 100t-66.5 85l-21 35q7 14 22 37t65 82t103 103t134.5 81t163 37t162 -35t136.5 -85t100.5 -100t66.5 -85zM745 350q0 99 -70 168.5t-168.5 69.5t-168.5 -69.5t-70 -168.5t70 -169.5
t168.5 -70.5t168.5 70.5t70 169.5zM614 350q0 -44 -32 -76t-76 -32t-75 32t-31 76t31 76t75 32t76 -33t32 -75z" />
    <glyph glyph-name="uniE70B" unicode="&#xe70b;" 
d="M26 353q85 130 212 207q125 76 277 76q43 0 100 -10l31 54q6 9 15 9q4 0 28 -12l46 -27q9 -6 9 -15v-5l-176 -316l-176 -316l-28 -50q-6 -9 -15 -9q-7 0 -75 39q-9 6 -9 16q0 5 25 49q-162 74 -264 233q-11 19 -11 38q0 20 11 39zM368 184q-45 33 -74 85.5t-29 116.5
q0 67 34 125q-128 -67 -213 -197q92 -142 239 -209zM345 386q0 -11 8 -19t19 -8t19 8t8 19q0 47 34.5 81.5t81.5 34.5q11 0 19 8t8 19t-8 18.5t-19 7.5q-69 0 -119.5 -50t-50.5 -119zM556 67q124 11 224 79t164 168q-63 98 -158 164l35 63q53 -36 102.5 -86t80.5 -102
q11 -20 11 -39q0 -18 -11 -38q-42 -70 -111 -132t-144 -98q-111 -53 -234 -53zM604 152l157 281q4 -23 4 -47q0 -82 -46.5 -145t-114.5 -89z" />
    <glyph glyph-name="uniE70C" unicode="&#xe70c;" horiz-adv-x="927" 
d="M914 728v-242l-536 -536l-364 364l535 536h243zM770 584q25 26 25 61t-25.5 60.5t-60.5 25.5t-60.5 -25.5t-25.5 -60.5t25.5 -60.5t60.5 -25.5t61 25z" />
    <glyph glyph-name="uniE70D" unicode="&#xe70d;" horiz-adv-x="1090" 
d="M15 707q0 29 21.5 50.5t49.5 21.5h233q32 0 67 -15.5t55 -35.5l399 -399q20 -21 20 -50q0 -31 -20 -51l-274 -274q-22 -21 -51 -21t-50 21l-399 399q-19 18 -35 54.5t-16 67.5v232zM122 600q0 -29 21.5 -50t50.5 -21t50 21t21 50t-21 50t-50 21t-50.5 -21t-21.5 -50z
M408 779h125q32 0 67 -15.5t55 -35.5l399 -399q21 -23 21 -50q0 -30 -21 -51l-274 -274q-22 -21 -51 -21q-15 0 -27 5.5t-16.5 9.5t-18.5 18l262 262q21 21 21 51q0 27 -21 50l-399 399q-20 20 -55 35.5t-67 15.5z" />
    <glyph glyph-name="uniE70E" unicode="&#xe70e;" horiz-adv-x="928" 
d="M344 601q0 -36 -25 -61t-61 -25t-60.5 25t-24.5 61t24.5 61t60.5 25t61 -25t25 -61zM18 841h371l522 -522h-370v-371l-523 523v370zM347 741h-229v-229l324 -324v231h229l-193 192z" />
    <glyph glyph-name="uniE70F" unicode="&#xe70f;" 
d="M86 -79q-29 0 -50 21.5t-21 50.5v714q0 29 21 50.5t50 21.5h858q29 0 50 -21.5t21 -50.5v-714q0 -29 -21 -50.5t-50 -21.5h-858zM944 -7v71h-858v-71h858zM944 564v143h-462l-36 -71h-360v-72h858zM372 671v72h-214v-72h214zM363 162q63 -63 152 -63t152 63q62 62 62 151
q0 90 -62 152t-152 62t-152 -62t-62 -152q0 -89 62 -151zM372 313q0 59 42 101t101 42t101 -42t42 -101t-42 -101t-101 -42t-101 42t-42 101zM426 314q0 -8 5 -13t13 -5q17 0 17 18q0 22 15.5 38t38.5 16q7 0 12.5 5t5.5 13t-5.5 13t-12.5 5q-37 0 -63 -26.5t-26 -63.5z" />
    <glyph glyph-name="uniE710" unicode="&#xe710;" horiz-adv-x="928" 
d="M688 729q92 0 157.5 -65t65.5 -157.5t-65.5 -158t-157.5 -65.5h-167v-167h111l-168 -168l-166 168h111v167h-168q-92 0 -157.5 65.5t-65.5 158t65.5 157.5t157.5 65q11 0 30 -2q29 52 80.5 83t112.5 31q60 0 112.5 -31t81.5 -83q19 2 30 2zM688 395q45 0 78 33t33 78.5
t-33 78.5t-78.5 33t-78.5 -33t-33 -79h-112q0 109 90 178q-33 45 -90 45q-45 0 -78 -33t-33 -78q0 -21 7 -39l-104 -39q-15 36 -15 77q-44 -2 -77.5 -34t-33.5 -77t33 -78t78 -33h447z" />
    <glyph glyph-name="uniE711" unicode="&#xe711;" horiz-adv-x="928" 
d="M688 729q92 0 157.5 -65t65.5 -157.5t-65.5 -158t-157.5 -65.5h-447q-92 0 -157.5 65.5t-65.5 158t65.5 157.5t157.5 65q11 0 30 -2q29 52 80.5 83t112.5 31q60 0 112.5 -31t81.5 -83q19 2 30 2zM688 395q45 0 78 33t33 78.5t-33 78.5t-78.5 33t-78.5 -33t-33 -79h-112
q0 109 90 178q-33 45 -90 45q-45 0 -78 -33t-33 -78q0 -21 7 -39l-104 -39q-15 36 -15 77q-44 -2 -77.5 -34t-33.5 -77t33 -78t78 -33h447zM521 116v-168h-112v168h-111l166 167l168 -167h-111z" />
    <glyph glyph-name="uniE712" unicode="&#xe712;" horiz-adv-x="1093" 
d="M464 850v-287q197 -28 326 -102q124 -71 185 -155q64 -90 83 -157l15 -62q6 -32 6 -43l1 -15q-14 25 -27 38.5t-50 44.5q-50 41 -113 69q-54 25 -145.5 41.5t-176.5 16.5q-43 0 -104 -5v-284l-450 449z" />
    <glyph glyph-name="uniE713" unicode="&#xe713;" horiz-adv-x="1422" 
d="M464 850v-164l-287 -287l287 -286v-163l-450 449zM793 850v-287q198 -28 327 -102q122 -70 183 -155q64 -90 83 -157q21 -74 22 -105v-15q-14 25 -27 38.5t-51 44.5q-50 42 -111 69q-54 25 -145.5 41.5t-177.5 16.5q-43 0 -103 -5v-284l-451 449z" />
    <glyph glyph-name="uniE714" unicode="&#xe714;" horiz-adv-x="1377" 
d="M914 850l450 -450l-450 -450l-139 139l311 311l-311 311zM291 400l311 -311l-138 -139l-450 450l450 450l138 -139z" />
    <glyph glyph-name="uniE715" unicode="&#xe715;" horiz-adv-x="902" 
d="M850 222v-192q0 -25 -17.5 -42.5t-41.5 -17.5h-712q-24 0 -42 17.5t-18 42.5v502q0 26 17.5 43t42.5 17h229v-90h-199v-442h651v162h90zM302 195q0 7 1 21.5t6.5 54.5t15.5 77t31.5 81.5t50 77t75.5 54t104 21.5l-34 148l332 -232l-332 -238l37 168q-5 0 -14 -1t-35 -6
t-49 -13t-52 -25.5t-49.5 -40.5t-35 -61.5t-14.5 -85.5h-38z" />
    <glyph glyph-name="uniE716" unicode="&#xe716;" horiz-adv-x="978" 
d="M960 486v-366q0 -31 -22.5 -54.5t-52.5 -23.5h-76l33 -152h-691l28 152h-83q-34 0 -55.5 23t-21.5 55v366q0 33 21.5 55.5t55.5 22.5h96v117h34v129h528v-129h34v-117h97q30 0 52.5 -23t22.5 -55zM261 471h458v291h-458v-291zM204 428q0 21 -16.5 37t-38.5 16
q-21 0 -37.5 -16t-16.5 -37q0 -23 16.5 -38.5t37.5 -15.5q22 0 38.5 15.5t16.5 38.5zM211 -64h568l-48 242h-483zM325 49v35h139v-35h-139zM661 49h-139v35h139v-35z" />
    <glyph glyph-name="uniE717" unicode="&#xe717;" horiz-adv-x="1251" 
d="M1022 382h216l-270 -288l-270 288h216v216h-360l-106 108h573zM698 202l105 -108h-573v324h-216l270 288l270 -288h-216v-216h360z" />
    <glyph glyph-name="uniE718" unicode="&#xe718;" horiz-adv-x="1050" 
d="M1037 760v-479q0 -36 -27 -63t-63 -27h-151v-241l-241 241h-451q-37 0 -63.5 27t-26.5 63v479q0 36 26.5 63t63.5 27h843q36 0 63 -27t27 -63z" />
    <glyph glyph-name="uniE719" unicode="&#xe719;" horiz-adv-x="928" 
d="M18 228v278q0 115 82 197.5t198 82.5h278q139 0 237 -98.5t98 -236.5t-98 -236.5t-237 -98.5h-223q-46 0 -79 -33t-33 -78q-92 0 -157.5 65t-65.5 158z" />
    <glyph glyph-name="uniE71A" unicode="&#xe71a;" horiz-adv-x="1088" 
d="M1075 432q0 -124 -76.5 -217.5t-188.5 -144.5q-124 -56 -266 -56q-110 0 -211 35l2 -3l-321 -96q40 54 63 113q24 59 28 96l4 34q-95 107 -95 239q0 125 75.5 218t187.5 144q123 56 267 56q147 0 269 -57.5t191 -150.5q71 -95 71 -210z" />
    <glyph glyph-name="uniE71B" unicode="&#xe71b;" horiz-adv-x="928" 
d="M853 171h-444q-126 0 -160.5 -13.5t-118.5 -97.5q-26 25 -50.5 72.5t-41 109t-21 128.5t18.5 131t69 115t138.5 82t220.5 31q74 0 134 -7.5t120 -30t100.5 -58.5t66.5 -96.5t26 -141.5q0 -50 -14.5 -105.5t-28.5 -86.5z" />
    <glyph glyph-name="uniE71C" unicode="&#xe71c;" horiz-adv-x="817" 
d="M409 729q-115 0 -197 -81.5t-82 -196.5q0 -114 80 -197l32 -32v-46v-19l28 17q18 12 26 18l47 -12q34 -9 66 -9q115 0 197 82.5t82 197.5t-82 196.5t-197 81.5zM409 841q162 0 276 -114t114 -276t-114 -276.5t-276 -114.5q-42 0 -92 12l-187 -124l1 228
q-113 115 -113 275q0 162 114.5 276t276.5 114z" />
    <glyph glyph-name="uniE71D" unicode="&#xe71d;" horiz-adv-x="817" 
d="M409 841q162 0 276 -114t114 -276t-114 -276.5t-276 -114.5q-42 0 -92 12l-187 -124l1 228q-113 115 -113 275q0 162 114.5 276t276.5 114z" />
    <glyph glyph-name="uniE720" unicode="&#xe720;" horiz-adv-x="1088" 
d="M1075 432q0 -124 -76.5 -217.5t-188.5 -144.5q-124 -56 -266 -56q-110 0 -211 35l2 -3l-321 -96q40 54 63 113q24 59 28 96l4 34q-95 107 -95 239q0 125 75.5 218t187.5 144q123 56 267 56q147 0 269 -57.5t191 -150.5q71 -95 71 -210zM850 432q0 26 -19.5 45t-45.5 19
q-25 0 -44.5 -19t-19.5 -45t19 -45t45 -19q27 0 46 18.5t19 45.5zM625 432q0 26 -19.5 45t-45.5 19q-25 0 -44.5 -19t-19.5 -45t19 -45t45 -19q27 0 46 18.5t19 45.5zM400 432q0 26 -19.5 45t-45.5 19q-25 0 -44.5 -19t-19.5 -45t19 -45t45 -19q27 0 46 18.5t19 45.5z" />
    <glyph glyph-name="uniE721" unicode="&#xe721;" horiz-adv-x="928" 
d="M688 506q0 -92 -65.5 -157.5t-158.5 -65.5q0 46 -33 79t-78 33h-112q-93 0 -158 55t-65 168q0 114 65 168.5t158 54.5h223q92 0 158 -57.5t66 -165.5v-112zM353 506zM353 506zM743 500q74 -14 121 -67.5t47 -149.5q0 -113 -65 -168t-158 -55h-112q-46 0 -79 -33t-33 -79
q-92 0 -157.5 65.5t-65.5 157.5v112q0 29 6 56h106q24 0 40 -16.5t16 -39.5v-55h55q113 0 194.5 79t84.5 193z" />
    <glyph glyph-name="uniE722" unicode="&#xe722;" 
d="M915 750q42 0 71 -29t29 -71v-600q0 -41 -29.5 -70.5t-70.5 -29.5h-800q-40 0 -70 30t-30 70v600q0 41 29.5 70.5t70.5 29.5h800zM915 650h-800v-600h800v600zM465 156h-250v90h250v-90zM465 306h-250v90h250v-90zM465 456h-250v90h250v-90zM811 226l4 -70h-250
q0 70 6 70q84 22 84 66q0 16 -27 56t-27 88q0 110 90 110t90 -110q0 -48 -28 -88t-28 -56q0 -20 20.5 -35.5t43.5 -22.5z" />
    <glyph glyph-name="uniE723" unicode="&#xe723;" horiz-adv-x="786" 
d="M18 325l100 75h500l50 -150h-550zM118 600h550l100 -75l-100 -75h-500zM318 200h150v-200h-150v200zM318 650v100h150v-100h-150z" />
    <glyph glyph-name="uniE724" unicode="&#xe724;" horiz-adv-x="554" 
d="M541 586q0 -23 -17 -83q-15 -51 -40 -117q-65 -172 -207 -436q-71 131 -128 254q-47 102 -71.5 161.5t-46.5 137.5q-15 49 -16 65l-1 18q0 109 77 186.5t186 77.5t186.5 -77.5t77.5 -186.5zM355 586q0 33 -22.5 55.5t-55 22.5t-55 -22.5t-22.5 -55t22.5 -55t55 -22.5
t55 22.5t22.5 54.5z" />
    <glyph glyph-name="uniE725" unicode="&#xe725;" horiz-adv-x="594" 
d="M464 563q0 68 -49.5 117t-118.5 49t-117.5 -49t-48.5 -117q0 -70 49 -119q61 -61 117 -151q54 86 120 152q48 48 48 118zM296 841q117 0 198.5 -81.5t81.5 -197.5t-82 -197l-21 -23q-13 -13 -47.5 -59t-60 -92t-47.5 -113t-22 -130q0 63 -20 129t-49 115t-58 90t-49 62
l-20 21q-82 81 -82 197t81.5 197.5t196.5 81.5zM353 563q0 -24 -17 -40.5t-40 -16.5q-25 0 -40 16.5t-15 40.5t15 39.5t40 15.5q24 0 40.5 -16.5t16.5 -38.5z" />
    <glyph glyph-name="uniE726" unicode="&#xe726;" horiz-adv-x="482" 
d="M241.5 841q92.5 0 157.5 -65.5t65 -157.5q0 -55 -55.5 -222.5t-110.5 -308.5l-57 -139l-62 156q-37 94 -99 276.5t-62 237.5q0 92 65.5 157.5t158 65.5zM241.5 506q45.5 0 78.5 33t33 78.5t-33 78.5t-78.5 33t-78.5 -33t-33 -78.5t33 -78.5t78.5 -33z" />
    <glyph glyph-name="uniE727" unicode="&#xe727;" 
d="M1015 -14q0 -14 -9 -25t-23 -11q-7 0 -18 6l-216 136l-216 -136q-18 -10 -34 0l-218 136l-216 -136q-16 -10 -34 0q-16 10 -16 30v584q0 20 16 30l234 146q18 10 34 0l216 -136l218 136q16 10 32 0l234 -146q16 -10 16 -30v-584zM249 150v506l-168 -104v-506zM483 46v506
l-168 104v-506zM717 150v506l-170 -104v-506zM949 46v506l-168 104v-506z" />
    <glyph glyph-name="uniE728" unicode="&#xe728;" horiz-adv-x="928" 
d="M464 729q-138 0 -236 -97.5t-98 -237t98 -237t236 -97.5t236.5 97.5t98.5 237t-98.5 237t-236.5 97.5zM464.5 841q184.5 0 315.5 -131t131 -315.5t-131 -315.5t-315.5 -131t-315.5 131t-131 315.5t131 315.5t315.5 131zM524.5 453.5q-33.5 33.5 -79.5 21.5l243 143
l-144 -246q14 48 -19.5 81.5zM406 336q34 -35 81 -21l-246 -144l144 244q-12 -47 21 -79z" />
    <glyph glyph-name="uniE729" unicode="&#xe729;" horiz-adv-x="851" 
d="M832 693.5q0 -18.5 -13.5 -31.5t-30.5 -13h-7l-135 -688h-437l-134 688h-11q-19 0 -32 13t-13 31.5t13 32t32 13.5h724q17 0 30.5 -13.5t13.5 -32zM391 631l-19 18h-117l-19 -18l78 -77zM198 374l24 -129l60 60l-77 76zM236 414l78 -78l77 78l-77 76zM422 381l-76 -76
l76 -77l78 77zM455 414l76 -78l78 78l-78 76zM422 445l78 77l-78 77l-76 -77zM205 599l-44 -43l18 -85l26 -26l77 77zM314 272l-78 -77l78 -76l77 76zM422 164l-76 -78l58 -57h37l59 57zM531 119l78 76l-78 77l-76 -77zM631 236l25 129l-16 16l-76 -76zM680 484l12 64
l-52 51l-76 -77l76 -77zM609 631l-19 18h-118l-17 -18l76 -77zM151 609l40 40h-47zM248 121l17 -92h75zM611 134l-106 -105h85zM702 601l10 48h-58z" />
    <glyph glyph-name="uniE72A" unicode="&#xe72a;" horiz-adv-x="928" 
d="M911 729v-111h-112v-502q0 -69 -48.5 -118.5t-118.5 -49.5h-334q-70 0 -119 49.5t-49 118.5v502h-112v111h223q0 46 33 79t79 33h223q46 0 79 -33t33 -79h223zM688 116v502h-447v-502q0 -24 16.5 -40t40.5 -16h334q23 0 39.5 16t16.5 40zM298 228q0 55 55 55q56 0 56 -55
q0 -57 -56 -57q-55 0 -55 57zM298 451q0 55 55 55q56 0 56 -55q0 -56 -56 -56q-55 0 -55 56zM521 228q0 55 55 55q56 0 56 -55q0 -57 -56 -57q-55 0 -55 57zM521 451q0 55 55 55q56 0 56 -55q0 -56 -56 -56q-55 0 -55 56z" />
    <glyph glyph-name="uniE730" unicode="&#xe730;" horiz-adv-x="711" 
d="M698 670l-1 -720h-683v900h504zM158 94h396v504h-108v108h-288v-612z" />
    <glyph glyph-name="uniE731" unicode="&#xe731;" horiz-adv-x="705" 
d="M409 841l279 -278v-615h-670v893h391zM350 506h224l-224 223v-223z" />
    <glyph glyph-name="uniE732" unicode="&#xe732;" horiz-adv-x="928" 
d="M632 841l279 -278v-615l-221 185l-223 -185l-225 185l-224 -184v892h614zM800 174v223h-336v335h-334v-558l114 89l223 -184l223 185zM576 509h224l-111 111l-113 112v-223z" />
    <glyph glyph-name="uniE733" unicode="&#xe733;" horiz-adv-x="928" 
d="M622 841l289 -287v-606l-223 185l-224 -185l-223 185l-223 -185v893h604zM521 451h278l-278 278v-278z" />
    <glyph glyph-name="uniE734" unicode="&#xe734;" horiz-adv-x="733" 
d="M715 580h-696v80h696v-80zM532 400h-513v80h513v-80zM715 220h-696v80h696v-80zM532 120v-80h-513v80h513z" />
    <glyph glyph-name="uniE735" unicode="&#xe735;" horiz-adv-x="996" 
d="M978 721v-631q0 -44 -33 -77.5t-73 -33.5h-717q-136 0 -136 159v461h132v122h827zM151 531h-65v-393q0 -86 32 -86q33 0 33 86v393zM910 654h-691v-516q0 -54 -19 -92h672q17 0 27.5 14.5t10.5 29.5v564zM485 202h-159v23h159v-23zM485 131h-159v23h159v-23zM548 439h266
v-254h-266v254zM485 342h-159v23h159v-23zM485 271h-159v23h159v-23zM485 416h-159v23h159v-23zM350 511v44h416v-44h-416z" />
    <glyph glyph-name="uniE736" unicode="&#xe736;" horiz-adv-x="1031" 
d="M985 480q37 -10 30 -46l-150 -556q-4 -15 -17.5 -22.5t-30.5 -3.5l-406 110q-14 3 -23 16.5t-5 29.5l24 92l-180 -48q-39 -10 -50 26l-160 602q-10 36 28 48l454 122q17 4 30.5 -3.5t17.5 -22.5l66 -244zM97 670l144 -542l392 106l-144 540zM799 -72l132 492l-298 82
l76 -282q10 -34 -28 -46l-196 -52l-26 -102z" />
    <glyph glyph-name="uniE737" unicode="&#xe737;" horiz-adv-x="915" 
d="M902 560v-498h-888v676h710zM156 205h604v284h-107v106h-497v-390z" />
    <glyph glyph-name="uniE738" unicode="&#xe738;" horiz-adv-x="1122" 
d="M1070 850q15 0 27 -11.5t12 -27.5v-118q0 -16 -11.5 -27t-27.5 -11h-1018q-15 0 -26.5 11.5t-11.5 26.5v118q0 16 12 27.5t26 11.5h1018zM1030 576q17 0 28.5 -11.5t11.5 -27.5v-548q0 -16 -12 -27.5t-28 -11.5h-938q-16 0 -28 11.5t-12 27.5v548q0 16 12 27.5t28 11.5
h938zM796 400q0 24 -17.5 41t-41.5 17h-352q-24 0 -41 -17t-17 -41t17 -41t41 -17h352q24 0 41.5 17t17.5 41z" />
    <glyph glyph-name="uniE73A" unicode="&#xe73a;" horiz-adv-x="927" 
d="M740 -50q0 154 -59.5 287.5t-153 227t-227 153t-286.5 59.5v173q189 0 354.5 -74t281.5 -190t190 -281t74 -355h-174zM435 -50q0 175 -123.5 298t-297.5 123v173q170 0 304 -83t209 -213q81 -137 81 -298h-173zM238 62q0 -46 -32.5 -79t-79.5 -33t-79.5 33t-32.5 79.5
t32.5 79.5t79.5 33t79.5 -33t32.5 -80z" />
    <glyph glyph-name="uniE73B" unicode="&#xe73b;" horiz-adv-x="927" 
d="M834 850q33 0 56.5 -23.5t23.5 -55.5v-742q0 -32 -23.5 -55.5t-56.5 -23.5h-741q-33 0 -56 23.5t-23 55.5v742q0 32 23 55.5t56 23.5h741zM781 82q0 134 -51.5 251t-133.5 198.5t-199 134t-251 52.5v-122q146 0 263 -72t181 -183q69 -118 69 -259h122zM565 82
q0 120 -59 215t-150 148q-97 57 -210 57v-122q122 0 210 -87q87 -85 87 -211h122zM305 162q0 33 -23.5 56.5t-56.5 23.5q-32 0 -55.5 -24t-23.5 -56.5t23.5 -56t55.5 -23.5t56 23.5t24 56.5z" />
    <glyph glyph-name="uniE73C" unicode="&#xe73c;" horiz-adv-x="928" 
d="M799 171q46 0 79 -33t33 -78.5t-33 -78.5t-78.5 -33t-78.5 33t-33 79q0 18 8 39l-169 122q-49 -50 -118 -50t-118.5 49.5t-49.5 118.5q0 9 3 26l-134 44q-16 -14 -36 -14q-24 0 -40 16.5t-16 39.5t16 39t40 16q20 0 34 -12.5t19 -31.5l135 -45q21 41 60.5 65t86.5 24
q52 0 96 -31l199 199q-16 30 -16 55q0 46 33 79t78.5 33t78.5 -33t33 -78.5t-33 -78.5t-79 -33q-26 0 -55 17l-199 -200q31 -44 31 -96q0 -37 -17 -73l169 -121q33 26 71 26z" />
    <glyph glyph-name="uniE73D" unicode="&#xe73d;" horiz-adv-x="892" 
d="M280 -2.5q0 -32.5 -22.5 -55t-56.5 -22.5q-31 0 -54 22.5t-23 55t22.5 55t54.5 22.5q34 0 56.5 -22.5t22.5 -55zM809 -2.5q0 -32.5 -22.5 -55t-55 -22.5t-56 22.5t-23.5 55t23.5 55t56 22.5t55 -22.5t22.5 -55zM254 665h565q26 0 40.5 -13.5t14.5 -36.5v-235
q0 -20 -13 -34t-33 -16l-506 -55q-20 -3 -28.5 -18t0 -28.5t31.5 -13.5h479q26 0 36.5 -20t0 -40t-36.5 -20h-489q-53 0 -84.5 32.5t-26.5 77t46 75.5l44 32l-155 338h-77q-27 0 -38.5 22.5t0 45t38.5 22.5h89q31 0 45.5 -12.5t25.5 -39.5zM599 595h-130l26 -85h124z
M325 510h126l-27 85h-138zM395 352l100 10l-33 103h-118zM539 368l112 12l-25 85h-118zM805 398v67h-133l20 -80zM805 510v85h-161l18 -85h143z" />
    <glyph glyph-name="uniE73E" unicode="&#xe73e;" horiz-adv-x="803" 
d="M19 515v185h210v-185h-210zM44 420h160v-70h-160v70zM44 245h160v-70h-160v70zM44 70h160v-70h-160v70zM296 515v185h210v-185h-210zM321 420h160v-70h-160v70zM321 245h160v-70h-160v70zM321 70h160v-70h-160v70zM575 515v185h210v-185h-210zM600 420h160v-70h-160v70z
M600 245h160v-70h-160v70zM600 0v70h160v-70h-160z" />
    <glyph glyph-name="uniE740" unicode="&#xe740;" horiz-adv-x="887" 
d="M51 207q-14 0 -25 11t-11 25v214q0 14 11 25t25 11h250v161q0 14 10.5 24.5t24.5 10.5q16 0 26 -10l303 -304q11 -11 11 -25t-11 -25l-303 -304q-10 -10 -26 -10q-14 0 -24.5 10.5t-10.5 24.5v161h-250zM514 37q2 27 19 27h178q37 0 63.5 26.5t26.5 63.5v392
q0 37 -26.5 63.5t-63.5 26.5h-174q-13 0 -13 2q0 1 -4.5 3.5t-3.5 4.5q0 5 -1 8q0 3 -0.5 13.5t0 15t2 11.5t5.5 10t11 3h178q66 0 113.5 -47.5t47.5 -113.5v-392q0 -66 -47.5 -113.5t-113.5 -47.5h-178q-7 0 -12.5 5.5t-5.5 12.5q0 2 -0.5 12.5t-0.5 13.5z" />
    <glyph glyph-name="uniE741" unicode="&#xe741;" horiz-adv-x="1096" 
d="M1083 399l-249 -237v159h-371v158h371v159zM685 178l95 -97q-141 -131 -304 -131q-195 0 -328 130q-134 129 -134 322q0 128 63.5 230t161.5 159q105 59 226 59q167 0 314 -133l-94 -96q-104 94 -219 94q-135 0 -226.5 -93.5t-91.5 -228.5q0 -126 95 -217t222 -91
q119 0 220 93z" />
    <glyph glyph-name="uniE742" unicode="&#xe742;" horiz-adv-x="926" 
d="M911 180q0 -33 -24 -56.5t-56 -23.5h-780q-9 0 -15 0.5t-13 2.5t-8 6t2 11q5 9 24 20l802 452q29 18 48.5 6.5t19.5 -44.5v-374z" />
    <glyph glyph-name="uniE744" unicode="&#xe744;" horiz-adv-x="927" 
d="M555 404q-36 0 -62 26t-26 62t26 62l145 145l-145 151h421v-420l-152 145l-145 -145q-26 -26 -62 -26zM289 101l145 -151h-420v420l151 -145l145 145q26 26 62 26t62 -26t26 -62t-26 -62z" />
    <glyph glyph-name="uniE745" unicode="&#xe745;" horiz-adv-x="928" 
d="M839 99l72 72v-223h-223l72 72l-184 184l79 79zM90 690l-72 -72v223h223l-72 -72l184 -184l-79 -79zM760 769l-72 72h223v-223l-72 72l-184 -184l-79 79zM353 204l-184 -184l72 -72h-223v223l72 -72l184 184z" />
    <glyph glyph-name="uniE746" unicode="&#xe746;" horiz-adv-x="681" 
d="M85 672l114 -117l72 75v-210h-210l73 72l-115 116zM85 28l-66 67l115 113l-73 72h210v-210l-72 72zM598 672l64 -64l-114 -116l72 -72h-210v210l72 -72zM482 142l-72 -72v210h210l-72 -72l114 -113l-64 -67z" />
    <glyph glyph-name="uniE747" unicode="&#xe747;" horiz-adv-x="928" 
d="M648 132l-72 -72v223h223l-72 -72l184 -184l-79 -79zM200 579l-182 183l79 79l183 -182l73 70l-1 -222l-222 -1zM18 27l184 184l-72 72h223v-223l-72 72l-184 -184zM800 506h-224v225l73 -72l183 182l79 -79l-183 -183z" />
    <glyph glyph-name="uniE74A" unicode="&#xe74a;" horiz-adv-x="928" 
d="M521 283v-167h111l-168 -168l-166 168h111v167h112zM409 506v168h-111l166 167l168 -167h-111v-168h-112zM353 339h-167v-111l-168 167l168 168v-112h167v-112zM576 451h168v112l167 -168l-167 -167v111h-168v112z" />
    <glyph glyph-name="uniE74C" unicode="&#xe74c;" horiz-adv-x="1008" 
d="M995 278h-245v-328h-736v572h245v328h736v-572zM914 360v326h-573v-164h409v-162h164zM95 32h573v328h-573v-328z" />
    <glyph glyph-name="uniE74D" unicode="&#xe74d;" 
d="M915 800q41 0 70.5 -29.5t29.5 -70.5v-600q0 -42 -29 -71t-71 -29h-198v98h200v462h-802v-462h200v-98h-200q-41 0 -70.5 29.5t-29.5 70.5v600q0 40 30 70t70 30h800zM107 670q0 -16 11 -27t27 -11q38 0 38 38q0 16 -11 26t-27 10q-15 0 -26.5 -10.5t-11.5 -25.5z
M207 670q0 -16 11 -27t27 -11q38 0 38 38q0 16 -11 26t-27 10q-15 0 -26.5 -10.5t-11.5 -25.5zM917 700h-602v-62h602v62zM513 440l242 -240h-150v-300h-184v300h-150z" />
    <glyph glyph-name="uniE74E" unicode="&#xe74e;" 
d="M915 750q41 0 70.5 -29.5t29.5 -70.5v-600q0 -42 -29 -71t-71 -29h-800q-41 0 -70.5 29.5t-29.5 70.5v600q0 40 30 70t70 30h800zM245 656q-15 0 -26.5 -10.5t-11.5 -25.5q0 -16 11 -27t27 -11q38 0 38 38q0 16 -11 26t-27 10zM107 620q0 -16 11 -27t27 -11q38 0 38 38
q0 16 -11 26t-27 10q-15 0 -26.5 -10.5t-11.5 -25.5zM917 510h-802v-460h802v460zM917 590v60h-602v-60h602z" />
    <glyph glyph-name="uniE74F" unicode="&#xe74f;" horiz-adv-x="490" 
d="M245 850l230 -364h-460zM245 -150l-230 366h460z" />
    <glyph glyph-name="uniE750" unicode="&#xe750;" horiz-adv-x="825" 
d="M106 655q89 87 214 87t214 -87q81 -81 83.5 -205t-69.5 -204l114 -40l129 -130q18 -21 15.5 -49.5t-22.5 -48.5t-47.5 -22t-50.5 14l-130 130l-40 112q-81 -71 -204 -67.5t-206 84.5q-87 89 -87 214t87 212zM476 599q-65 66 -156.5 66t-157.5 -66q-64 -65 -64 -157
t65 -157t156.5 -65t156.5 65q66 65 66 157t-66 157zM186 476h100v102h68v-102h98v-64h-98v-100h-68v100h-100v64z" />
    <glyph glyph-name="uniE751" unicode="&#xe751;" horiz-adv-x="825" 
d="M107.5 655q87.5 87 212.5 87t212 -87q82 -81 84.5 -205t-68.5 -204l114 -40l128 -130q18 -21 15 -49.5t-23 -48.5t-47 -22t-50 14l-130 130l-40 112q-81 -71 -203.5 -67.5t-203.5 84.5q-88 89 -88 214t87.5 212zM475 599q-64 66 -155.5 66t-157.5 -66q-64 -65 -64 -157
t65 -157t156.5 -65t155.5 65q65 65 65 157t-65 157zM185 492h267v-94h-267v94z" />
    <glyph glyph-name="uniE752" unicode="&#xe752;" horiz-adv-x="1031" 
d="M929 634l8 -48q4 -10 -4 -12l-176 -30v-102h12q86 0 148 -36.5t86 -99.5q30 -83 -10 -176q-41 -95 -134 -160q-10 0 -12 2l-32 38q-2 6 2 10q85 60 117 152t-11 148q-34 -82 -98 -156q-35 -41 -84 -64.5t-108 -15.5q-53 6 -84.5 41.5t-31.5 92.5q0 84 60 148
q49 50 114 66l-2 100q-139 -24 -146 -24q-6 -1 -10 4l-3 14l-4 28q-3 15 -3 18q-3 3 1 4.5t7 1.5l156 28q0 108 -2 114q0 8 8 8q44 0 52 2q10 0 10 -8v-104q154 22 164 22q8 5 10 -6zM691 366q-44 -15 -74 -56.5t-30 -91.5q0 -66 46 -72q28 -6 62 6zM769 380q-1 0 -6 -1
t-6 -1l-2 -204q26 22 57 67t46 80t7 41q-36 18 -96 18zM307 556q14 -38 39 -118l56 -178l41 -130q40 -123 40 -126q0 -4 -4 -4h-86q-6 0 -6 4l-50 166h-176q-48 -164 -50 -166q0 -4 -6 -4h-86q-4 0 -4 4q8 14 176 552q2 8 10 8h96q10 0 10 -8zM177 240h144l-72 264z" />
    <glyph glyph-name="uniE753" unicode="&#xe753;" horiz-adv-x="935" 
d="M100 534q-25 -22 -55 -5.5t-27 47.5q2 22 18 36q49 42 79 60q36 22 89 40q60 20 129 4q71 -16 159 -66q90 -50 155 -53q68 -3 100 16q36 22 89 67q38 30 70 -6q32 -40 -6 -72q-122 -110 -234 -110q-101 0 -222 70q-70 39 -119 52q-51 14 -93 0q-42 -13 -65 -29
q-28 -18 -67 -51zM906 418q32 -40 -6 -72l-65 -53q-28 -22 -77 -39.5t-92 -17.5q-97 0 -222 70q-70 39 -119 52q-51 14 -93 0q-42 -13 -65 -29q-28 -18 -67 -51q-16 -14 -36.5 -11.5t-33.5 17.5q-32 40 6 72q43 39 62 52t67 36q49 23 91.5 24t101.5 -16q66 -17 134 -56
q70 -39 119 -52q51 -14 93 0q42 13 65 29q28 18 67 51q38 32 70 -6zM836 168q38 32 70 -6q14 -16 11.5 -37.5t-17.5 -34.5l-65 -53q-28 -22 -77 -39.5t-92 -17.5q-97 0 -222 70q-70 39 -119 52q-53 14 -93 1q-45 -14 -66 -29q-27 -19 -66 -52q-16 -14 -36.5 -11.5
t-33.5 17.5q-32 40 6 72q43 39 62 52t67 36q49 23 91.5 24t101.5 -16q66 -17 134 -56q70 -39 119 -52q51 -14 93 0q42 13 65 29q28 18 67 51z" />
    <glyph glyph-name="uniE754" unicode="&#xe754;" horiz-adv-x="730" 
d="M715 206v-100q0 -73 -104 -135q-103 -61 -246 -61q-141 0 -245 61q-105 61 -105 135v100q0 10 4.5 10.5t9.5 -8.5q34 -56 130.5 -88t205.5 -32t205 32t131 88q14 20 14 -2zM715 462v-116q0 -68 -102 -114q-101 -46 -248 -46q-145 0 -247 46q-103 46 -103 114v116
q0 20 14 0q33 -50 130.5 -77t205.5 -27t205.5 26.5t132.5 77.5q7 16 12 0zM365 790q143 0 247 -39q103 -39 103 -93v-64q0 -59 -103 -99q-105 -41 -247 -41t-247 41q-103 40 -103 99v64q0 54 103 93q104 39 247 39z" />
    <glyph glyph-name="uniE755" unicode="&#xe755;" horiz-adv-x="932" 
d="M899 304q26 -44 14 -96l-34 -184q-2 -20 -19.5 -35t-38.5 -15h-712q-20 0 -38 15.5t-20 34.5l-34 184q-8 54 14 96l158 374q22 46 72 46h408q50 0 74 -46zM831 172q2 22 -10.5 38t-33.5 16h-644q-21 0 -33.5 -16t-10.5 -38l14 -74q2 -21 19 -36.5t39 -15.5h590
q22 0 39 15.5t19 36.5z" />
    <glyph glyph-name="uniE756" unicode="&#xe756;" horiz-adv-x="943" 
d="M537 360q-28 0 -49 -21t-21 -49q0 -20 10 -36q-43 -52 -108.5 -86.5t-137.5 -29.5q-101 10 -157 57q-54 46 -59 109q-8 122 156 184q-17 89 -22 138q-8 56 104 105q111 49 284 49q175 0 286 -49q112 -49 104 -105l-45 -288l-32 -208l-15 -92q-1 -18 -37 -44
q-35 -26 -107 -50t-154 -24q-83 0 -153 24q-71 24 -106 50q-36 26 -37 44q0 5 -4 30q91 -7 170 38t132 114q28 0 48 20.5t20 49.5t-20.5 49.5t-49.5 20.5zM122 251q33 -27 91 -39l-32 204q-101 -44 -96 -106q5 -33 37 -59zM537 522q71 0 149 16.5t121 40.5q38 21 38 35
t-38 35q-44 24 -121 40.5t-149 16.5q-71 0 -147.5 -16.5t-120.5 -40.5q-38 -21 -38 -35t38 -35q43 -24 120 -40.5t148 -16.5z" />
    <glyph glyph-name="uniE757" unicode="&#xe757;" horiz-adv-x="570" 
d="M415 356q62 -35 101 -96t39 -140q0 -112 -79 -191t-191 -79t-191 79t-79 191q0 79 39 140t101 96v444q0 50 40 50h170q19 0 34.5 -15t15.5 -35v-444zM285 -50q70 0 120 50t50 120q0 58 -33 101t-83 59v370h-100v-368q-51 -15 -87.5 -59.5t-36.5 -102.5q0 -70 50 -120
t120 -50z" />
    <glyph glyph-name="uniE758" unicode="&#xe758;" horiz-adv-x="887" 
d="M15 350q0 123 60 219.5t153 151.5q101 58 216 58q123 0 219.5 -60t151.5 -154q57 -99 57 -215q0 -123 -60 -219.5t-153 -151.5q-101 -58 -215 -58q-123 0 -220 60t-152 154q-57 99 -57 215zM158 350q0 -118 84 -202t202 -84t202 84q83 83 83 202t-83 202q-84 84 -202 84
t-202 -84t-84 -202zM247 332q0 8 5.5 13t12.5 5h107v196q0 8 5 13t13 5h107q7 0 12.5 -5t5.5 -13v-196h107q8 0 13 -5t5 -13q0 -7 -6 -13l-178 -178q-5 -5 -12 -5q-8 0 -13 5l-179 178q-5 5 -5 13z" />
    <glyph glyph-name="uniE759" unicode="&#xe759;" horiz-adv-x="950" 
d="M800 25q-135 -135 -325 -135t-325 135t-135 325q0 192 135 326q136 134 325 134t325 -134q135 -134 135 -326q0 -190 -135 -325zM221 96q106 -106 254 -106t254 106t106 254q0 150 -106 255q-107 105 -254 105t-254 -105q-106 -105 -106 -255q0 -148 106 -254zM667 260
h-204v-112l-190 202l190 204v-114h204v-180z" />
    <glyph glyph-name="uniE75A" unicode="&#xe75a;" horiz-adv-x="950" 
d="M150 675q135 135 325 135t325 -135t135 -325t-135 -325t-325 -135t-325 135t-135 325t135 325zM730 605q-105 105 -255 105q-147 0 -254 -105q-106 -105 -106 -255q0 -148 106 -254t254 -106q150 0 255 106t105 254q0 150 -105 255zM283 440h204v114l190 -204l-190 -202
v112h-204v180z" />
    <glyph glyph-name="uniE75B" unicode="&#xe75b;" horiz-adv-x="887" 
d="M15 350q0 123 60 219.5t153 151.5q101 58 216 58q123 0 219.5 -60t151.5 -154q57 -99 57 -215q0 -123 -60 -219.5t-153 -151.5q-101 -58 -215 -58q-123 0 -220 60t-152 154q-57 99 -57 215zM158 350q0 -118 84 -202t202 -84t202 84q83 83 83 202t-83 202q-84 84 -202 84
t-202 -84t-84 -202zM247 368q0 7 6 13l178 178q5 5 13 5q7 0 12 -5l179 -178q5 -5 5 -13t-5 -13t-13 -5h-107v-196q0 -8 -5.5 -13t-12.5 -5h-107q-8 0 -13 5t-5 13v196h-107q-7 0 -12.5 5t-5.5 13z" />
    <glyph glyph-name="uniE75C" unicode="&#xe75c;" horiz-adv-x="899" 
d="M15 457q0 30 21 51l42 42q21 20 50 20q31 0 51 -20l271 -271l271 271q20 20 50 20t51 -20l42 -42q20 -21 20 -51t-20 -50l-364 -363q-22 -22 -50 -22q-31 0 -51 22l-363 363q-21 19 -21 50z" />
    <glyph glyph-name="uniE75D" unicode="&#xe75d;" horiz-adv-x="615" 
d="M291 400l311 -311l-138 -139l-450 450l450 450l138 -139z" />
    <glyph glyph-name="uniE75E" unicode="&#xe75e;" horiz-adv-x="615" 
d="M152 850l450 -450l-450 -450l-138 139l311 311l-311 311z" />
    <glyph glyph-name="uniE75F" unicode="&#xe75f;" horiz-adv-x="899" 
d="M15 171q0 30 21 51l363 363q21 21 51 21q28 0 50 -21l363 -363q21 -21 21 -51t-20 -50l-42 -42q-21 -21 -51 -21q-31 0 -50 21l-271 271l-271 -271q-19 -21 -51 -21q-30 0 -50 21l-42 42q-21 19 -21 50z" />
    <glyph glyph-name="uniE760" unicode="&#xe760;" horiz-adv-x="798" 
d="M785 850v-364h-365l138 137q-69 56 -158 56q-101 0 -175 -68.5t-82 -167.5h-129q8 154 120 259q113 105 266 105q140 0 250 -92zM400 121q100 0 173.5 68.5t81.5 167.5h129q-8 -154 -120 -259q-111 -105 -264 -105q-143 0 -252 92l-134 -135v364h364l-138 -137
q71 -56 160 -56z" />
    <glyph glyph-name="uniE761" unicode="&#xe761;" horiz-adv-x="887" 
d="M15 350q0 123 60 219.5t153 151.5q101 58 216 58q123 0 219.5 -60t151.5 -154q57 -99 57 -215q0 -123 -60 -219.5t-153 -151.5q-101 -58 -215 -58q-123 0 -220 60t-152 154q-57 99 -57 215zM158 350q0 -118 84 -202t202 -84t202 84q83 83 83 202t-83 202q-84 84 -202 84
t-202 -84t-84 -202zM301 189v322q0 19 17 30.5t36 0.5l285 -161q19 -11 19 -31t-19 -31l-285 -161q-7 -4 -18 -4q-15 0 -25 10t-10 25z" />
    <glyph glyph-name="uniE762" unicode="&#xe762;" 
d="M15 -61v822q0 15 7.5 17.5t17.5 -7.5l396 -396q6 -6 8 -10v396q0 15 7.5 17.5t17.5 -7.5l396 -396q4 -4 7 -10v378q0 14 11 25t25 11h71q14 0 25 -11t11 -25v-786q0 -14 -11 -25t-25 -11h-71q-14 0 -25 11t-11 25v378q-3 -6 -7 -10l-396 -396q-10 -10 -17.5 -7.5
t-7.5 17.5v396q-2 -4 -8 -10l-396 -396q-10 -10 -17.5 -7.5t-7.5 17.5z" />
    <glyph glyph-name="uniE763" unicode="&#xe763;" 
d="M15 -43v786q0 14 11 25t25 11h71q14 0 25 -11t11 -25v-378q1 4 7 10l396 396q10 10 17.5 7.5t7.5 -17.5v-396q1 3 8 10l396 396q10 10 17.5 7.5t7.5 -17.5v-822q0 -15 -7.5 -17.5t-17.5 7.5l-396 396q-7 7 -8 10v-396q0 -15 -7.5 -17.5t-17.5 7.5l-396 396q-6 6 -7 10
v-378q0 -14 -11 -25t-25 -11h-71q-14 0 -25 11t-11 25z" />
    <glyph glyph-name="uniE764" unicode="&#xe764;" horiz-adv-x="482" 
d="M241 283q53 0 112 20v-355l-112 112l-111 -112v355q58 -20 111 -20zM241.5 841q92.5 0 157.5 -65.5t65 -158t-65 -157.5t-157.5 -65t-158 65t-65.5 157.5t65.5 158t158 65.5zM241.5 506q45.5 0 78.5 33t33 78.5t-33 78.5t-78.5 33t-78.5 -33t-33 -78.5t33 -78.5t78.5 -33
z" />
    <glyph glyph-name="uniE765" unicode="&#xe765;" horiz-adv-x="928" 
d="M18 729q0 57 56 57t56 -57q0 -55 -56 -55t-56 55zM18 506q0 57 56 57t56 -57q0 -55 -56 -55t-56 55zM18 283q0 56 56 56t56 -56q0 -55 -56 -55t-56 55zM18 60q0 56 56 56t56 -56q0 -55 -56 -55t-56 55zM241 674v112h670v-112h-670zM241 451v112h670v-112h-670zM241 228
v111h670v-111h-670zM241 5v111h670v-111h-670z" />
    <glyph glyph-name="uniE766" unicode="&#xe766;" horiz-adv-x="928" 
d="M18 729q0 57 56 57t56 -57q0 -55 -56 -55t-56 55zM241 674v112h670v-112h-670zM241 506q0 57 57 57q55 0 55 -57q0 -55 -55 -55q-57 0 -57 55zM464 451v112h447v-112h-447zM241 60q0 56 57 56q55 0 55 -56q0 -55 -55 -55q-57 0 -57 55zM464 5v111h447v-111h-447zM464 283
q0 56 57 56q55 0 55 -56q0 -55 -55 -55q-57 0 -57 55zM688 228v111h223v-111h-223z" />
    <glyph glyph-name="uniE767" unicode="&#xe767;" horiz-adv-x="894" 
d="M819 130l-372 358l-370 -358q-26 -23 -50 0q-24 24 0 50l396 390q25 26 48 0l396 -390q24 -26 0 -50q-25 -22 -48 0z" />
    <glyph glyph-name="uniE768" unicode="&#xe768;" 
d="M915 600q41 0 70.5 -29.5t29.5 -70.5v-300q0 -42 -29 -71t-71 -29h-800q-41 0 -70.5 29.5t-29.5 70.5v300q0 40 30 70t70 30h800zM915 200v300h-800v-300h800z" />
    <glyph glyph-name="uniE769" unicode="&#xe769;" 
d="M915 600q41 0 70.5 -29.5t29.5 -70.5v-300q0 -42 -29 -71t-71 -29h-800q-41 0 -70.5 29.5t-29.5 70.5v300q0 40 30 70t70 30h800zM915 500h-800v-300h800v300zM165 250v198h200v-198h-200z" />
    <glyph glyph-name="uniE76A" unicode="&#xe76a;" 
d="M915 600q41 0 70.5 -29.5t29.5 -70.5v-300q0 -42 -29 -71t-71 -29h-800q-41 0 -70.5 29.5t-29.5 70.5v300q0 40 30 70t70 30h800zM915 500h-800v-300h800v300zM165 448h200v-198h-200v198zM415 250v198h200v-198h-200z" />
    <glyph glyph-name="uniE76B" unicode="&#xe76b;" 
d="M915 600q41 0 70.5 -29.5t29.5 -70.5v-300q0 -42 -29 -71t-71 -29h-800q-41 0 -70.5 29.5t-29.5 70.5v300q0 40 30 70t70 30h800zM915 500h-800v-300h800v300zM165 448h200v-198h-200v198zM415 448h200v-198h-200v198zM665 448h200v-198h-200v198z" />
    <glyph glyph-name="uniE770" unicode="&#xe770;" horiz-adv-x="891" 
d="M385 701.5q0 23.5 17 40.5t40.5 17t40.5 -17t17 -40.5t-17 -40.5t-40.5 -17t-40.5 17t-17 40.5zM770 -100q8 -22 -5 -41.5t-37 -19.5q-32 0 -42 29l-14 34h-460l-13 -34q-10 -29 -41 -29q-26 0 -38 19.5t-5 41.5l277 714l43 28h16l41 -28zM591 111l-43 111l-72 -71
l78 -76zM442 494l-70 -182h140zM530 268h-170l85 -84zM339 226l-44 -111l41 -40l78 76zM230 -52h170l-122 121zM445 -35l77 77l-77 78l-77 -78zM490 -52h165l-46 118zM618 566q40 38 40 95q0 50 -37 89l35 35q55 -61 55 -129q0 -71 -56 -126zM750 496q68 65 65 162
q3 94 -65 162l38 36q82 -81 84 -202q-2 -118 -83 -196zM274 751q-40 -37 -40 -93q0 -53 36 -89l-35 -35q-55 55 -55 127q0 71 58 128zM102 861l39 -40q-66 -63 -66 -161q0 -95 66 -161l-37 -39q-83 82 -85 204q2 117 83 197z" />
    <glyph glyph-name="uniE771" unicode="&#xe771;" horiz-adv-x="970" 
d="M836 640q119 -121 119 -290t-119 -290q-118 -120 -289 -120q-139 0 -252 88l70 76q83 -60 182 -60q126 0 216 90t90 216q0 128 -90 218t-216 90q-124 0 -213 -86q-88 -86 -93 -210h142l-184 -206l-184 206h124q5 166 123 282q119 116 285 116q171 0 289 -120zM511 570h70
v-204l130 -130l-50 -50l-150 150v234z" />
    <glyph glyph-name="uniE772" unicode="&#xe772;" horiz-adv-x="986" 
d="M168 50q-60 0 -105 45.5t-45 104.5v350q0 59 45 104.5t105 45.5h550q63 0 106.5 -46t43.5 -108q3 0 13.5 2t11.5 2q30 0 55 -30q20 -37 20 -70v-150q0 -39 -21 -69.5t-54 -30.5h-10q-9 5 -15 5q0 -63 -43.5 -109t-106.5 -46h-550zM118 200q0 -50 50 -50h550q50 0 50 50
v350q0 50 -50 50h-550q-50 0 -50 -50v-350z" />
    <glyph glyph-name="uniE773" unicode="&#xe773;" horiz-adv-x="986" 
d="M168 50q-60 0 -105 45.5t-45 104.5v350q0 59 45 104.5t105 45.5h550q49 0 85 -50q41 -41 65 -100h9q10 5 16 5q36 0 55.5 -28.5t19.5 -72.5v-159q0 -49 -30 -79q-14 -21 -40 -21q-21 0 -30 5q0 -59 -45 -104.5t-105 -45.5h-550zM168 150h550q50 0 50 50v350q0 50 -50 50
h-550q-50 0 -50 -50v-350q0 -50 50 -50zM168 550h150v-350h-150v350zM368 200v350h150v-350h-150z" />
    <glyph glyph-name="uniE774" unicode="&#xe774;" horiz-adv-x="986" 
d="M168 50q-60 0 -105 45.5t-45 104.5v350q0 59 45 104.5t105 45.5h550q49 0 85 -50q41 -41 65 -100h9q10 5 16 5q36 0 55.5 -28.5t19.5 -72.5v-159q0 -49 -30 -79q-14 -21 -40 -21q-21 0 -30 5q0 -59 -45 -104.5t-105 -45.5h-550zM168 150h550q50 0 50 50v350q0 50 -50 50
h-550q-50 0 -50 -50v-350q0 -50 50 -50zM168 550h150v-350h-150v350zM368 550h150v-350h-150v350zM568 200v350h150v-350h-150z" />
    <glyph glyph-name="uniE775" unicode="&#xe775;" horiz-adv-x="986" 
d="M168 50q-60 0 -105 45.5t-45 104.5v350q0 59 45 104.5t105 45.5h550q64 0 110 -45q40 -51 40 -109l9 4h16q36 0 55 -30q20 -37 20 -70v-150q0 -39 -21 -69.5t-54 -30.5h-10q-9 5 -15 5q0 -59 -40 -109q-46 -46 -110 -46h-550zM168 150h550q50 0 50 50v350q0 50 -50 50
h-550q-50 0 -50 -50v-350q0 -50 50 -50zM168 550h550v-350h-550v350zM268 350q66 19 129 50q17 -51 61 -135l160 135l-130 -50q-10 38 -61 134q-96 -69 -159 -134z" />
    <glyph glyph-name="uniE776" unicode="&#xe776;" horiz-adv-x="950" 
d="M197 494q-51 56 -92 128q55 75 128 118q89 -37 152 -82q-6 -16 -6 -32q0 -7 4 -22q-62 -48 -116 -104q-15 4 -28 4q-23 0 -42 -10zM161 346q-61 -116 -80 -232q-66 106 -66 236q0 109 50 206q39 -64 84 -112q-8 -26 -8 -38q0 -34 20 -60zM427 710q-56 40 -114 70
q84 30 162 30q120 0 230 -62q-74 -13 -162 -50q-26 26 -66 26q-27 0 -50 -14zM333 376q4 17 4 30q0 22 -14 52q36 42 98 90q26 -20 56 -20q12 0 38 8q93 -106 134 -240q-14 -11 -26 -32q-160 24 -290 112zM753 76q0 6 -1 28t-1 28q37 14 54 60q59 4 108 18
q-47 -147 -166 -232q6 48 6 98zM297 -74q-90 36 -158 110q12 142 80 274q8 -2 20 -2q29 0 52 14q145 -99 310 -124q-189 -95 -304 -272zM935 350q0 -27 -4 -66q-65 -18 -130 -24q-24 56 -88 60q-48 146 -148 264q10 19 10 42v10q101 42 210 54q150 -136 150 -340zM649 146
q13 -10 32 -18q2 -24 2 -52q0 -77 -14 -144q-85 -42 -194 -42q-58 0 -112 12q109 159 286 244z" />
    <glyph glyph-name="uniE777" unicode="&#xe777;" horiz-adv-x="887" 
d="M51 -7q-14 0 -25 11t-11 25v269q0 32 14 68l133 308q5 13 19 23t30 10h465q16 0 30 -10t19 -23l133 -308q14 -36 14 -68v-269q0 -14 -11 -25t-25 -11h-785zM125 314h176l53 -107h179l53 107h176q0 1 -1 4.5t-2 4.5l-118 277h-395l-118 -277q0 -1 -1 -5t-2 -4z" />
    <glyph glyph-name="uniE778" unicode="&#xe778;" horiz-adv-x="931" 
d="M899 306q24 -53 14 -96l-34 -184q-2 -20 -19.5 -35t-38.5 -15h-712q-21 0 -38.5 15t-19.5 35l-34 184q-8 51 14 96l158 374q22 46 72 46h104l-20 -204h-134l254 -210l256 210h-136l-18 204h102q50 0 74 -46zM831 174q2 22 -10.5 38t-33.5 16h-644q-21 0 -33.5 -16
t-10.5 -38l14 -74q2 -20 18.5 -36t37.5 -16h592q22 0 39 15.5t19 36.5z" />
    <glyph glyph-name="uniE779" unicode="&#xe779;" horiz-adv-x="859" 
d="M816 206q0 -58 1.5 -89.5t8 -70.5t20.5 -72h-238q-13 37 -16 83q-109 -107 -275 -107q-181 0 -261 112q-42 60 -42 145q0 107 58 163q23 23 40.5 34.5t45.5 23.5q59 22 110 31q31 6 113.5 17t126.5 21q39 9 59 25q25 20 25 58q0 113 -153 113q-81 0 -118.5 -29
t-49.5 -101h-220q11 161 131 228q105 59 264 59q83 0 148 -13.5t116 -44.5t78.5 -86.5t27.5 -132.5v-367zM590 293v95q-37 -21 -135.5 -39t-114.5 -23q-86 -25 -86 -109q0 -55 35.5 -84.5t92.5 -29.5q94 0 151 50.5t57 139.5z" />
    <glyph glyph-name="uniE77A" unicode="&#xe77a;" horiz-adv-x="816" 
d="M414 779q3 0 16.5 -0.5t18.5 -0.5h41q49 0 106 -15q70 -21 114.5 -68t44.5 -122q0 -77 -71 -130q-19 -13 -84 -43q99 -22 149 -82q52 -60 52 -132q0 -74 -38 -130.5t-96 -84.5q-92 -44 -224 -40l-110 3q-46 1 -166 -6q-38 -3 -152 -7l1 53q94 19 107 24q10 16 11 28
q5 42 5 109l-1 277q-1 44 -2.5 120t-2.5 105q-1 52 -7 62q-8 12 -44 14q-7 1 -64 8l-2 46l145 3l212 7l25 1q2 0 8 0.5t8 0.5zM378 414q99 0 148 36.5t49 124.5q0 62 -48 104q-47 42 -142 42q-32 0 -73 -7q0 -19 2 -43q3 -45 3 -156l-1 -55q0 -8 0.5 -22t0.5 -20
q21 -4 61 -4zM316 176l2 -150q0 -6 7 -25q42 -18 78 -18q210 0 210 187q0 63 -23 101q-33 53 -78 70.5t-139 17.5q-41 0 -56 -6v-80z" />
    <glyph glyph-name="uniE77B" unicode="&#xe77b;" horiz-adv-x="601" 
d="M15 -77l9 47q1 0 43 11q38 10 65 22q17 22 23 56q14 77 46 227l7 36q15 84 30 128l2 6l17 88l9 35q7 38 16 103v21q-25 13 -80 16q-4 0 -8.5 0.5t-7.5 1t-5 0.5l10 58l177 -8q15 -1 41 -1q45 0 157 7l20 2q-3 -28 -10 -50q-15 -5 -57.5 -16.5t-59.5 -18.5
q-15 -38 -21 -95l-14 -65q-9 -37 -14 -62t-9 -43l-34 -174l-21 -88l-24 -131l-7 -25q-1 -2 1 -15q5 -1 103 -18q-1 -8 -9 -55q-7 0 -18.5 -1t-17.5 -1q-2 0 -16 2q-38 5 -81 10l-110 1q-3 0 -152 -11z" />
    <glyph glyph-name="uniE77C" unicode="&#xe77c;" horiz-adv-x="1028" 
d="M601 690q-12 0 -59 -0.5t-60 -0.5q-20 0 -38 -3q-6 -51 -4 -75v-85v-185l2 -201l-1 -82q0 -24 6 -47q27 -13 50 -18q1 0 10 -3q7 -2 24.5 -6.5t31 -9t21.5 -8.5q2 -17 2 -28q0 -9 -1 -16q-2 0 -8.5 -0.5t-10.5 -0.5q-62 0 -105 6q-36 4 -132 4q-54 0 -130 -7
q-9 0 -22 -1.5t-17 -1.5q0 3 -0.5 5.5t-1 4.5t-0.5 3v2v14v5q13 20 44 28q76 20 89 28q5 12 6 31q5 125 4 242l-3 238v124q0 5 0.5 13.5t0.5 12t-1 8.5t-4 6.5t-8 2.5q-28 4 -83 4q-19 0 -52.5 -7.5t-43.5 -14.5q-9 -5 -13 -18q-4 -10 -13.5 -46t-11.5 -43q-3 -8 -10 -16.5
t-13 -8.5q-25 15 -31 25v213l45 1l30 -15q11 -3 118 -3h73l10 2h64h120h164l19 -1q15 -1 31 17l24 1q3 0 8 -0.5t7 -0.5v-58q1 -25 1 -74v-55v-33q0 -7 -3 -28q-21 -9 -37 -10q-27 46 -39 106q-6 30 -7 36q-3 20 -10 24t-32 4zM804 54q4 10 24 10h44v572h-44q-19 0 -24 10.5
t6 24.5l71 90q11 15 27 15t27 -15l71 -90q11 -14 6 -24.5t-24 -10.5h-44v-572h44q19 0 24 -10.5t-6 -24.5l-71 -90q-11 -15 -27 -15t-27 15l-71 90q-10 15 -6 25z" />
    <glyph glyph-name="uniE77D" unicode="&#xe77d;" horiz-adv-x="887" 
d="M735 690q-15 0 -75 -0.5t-74 -0.5q-52 0 -70 -3q-6 -56 -5 -75q1 -43 1 -128.5t1 -128.5v-82q0 -25 6 -47q27 -13 50 -18q1 0 10 -3q72 -22 76 -24q3 -26 3 -28t-2 -16h-19q-68 0 -104 5q-45 5 -133 5q-52 0 -130 -7q-26 -3 -39 -3q-1 8 -1 14l-1 15v5q12 18 44 27
q76 20 89 28q6 15 7 31q3 76 3 242l-3 24q0 151 -1 156q-1 10 -11 11q-28 4 -83 4q-20 0 -90 -8.5t-77 -13.5q-9 -5 -13 -18q-4 -10 -13.5 -46t-11.5 -43q-3 -8 -10 -16.5t-13 -8.5q-25 15 -31 25v213l45 1l30 -15q11 -3 118 -3h73l10 2h64h249h178l19 -1q15 -1 31 17l23 1
q3 0 8.5 -0.5t7.5 -0.5v-58q1 -25 1 -74v-55v-33q0 -7 -3 -28q-21 -8 -38 -10q-25 43 -38 106q-6 30 -7 36q-3 22 -10.5 25t-40.5 3zM18 29q0 17 14 27l91 70q14 11 24.5 6.5t10.5 -23.5v-45h571v45q0 19 10.5 23.5t24.5 -6.5l91 -70q14 -10 14 -27q0 -18 -14 -28l-91 -70
q-14 -11 -24.5 -6.5t-10.5 23.5v45h-571v-45q0 -19 -10.5 -23.5t-24.5 6.5l-91 70q-14 10 -14 28z" />
    <glyph glyph-name="uniE77E" unicode="&#xe77e;" 
d="M51 -7q-14 0 -25 11t-11 25v71q0 14 11 25t25 11h928q14 0 25 -11t11 -25v-71q0 -14 -11 -25t-25 -11h-928zM51 207q-14 0 -25 11t-11 25v71q0 14 11 25t25 11h714q14 0 25 -11t11 -25v-71q0 -14 -11 -25t-25 -11h-714zM51 421q-14 0 -25 11t-11 25v72q0 14 11 24.5
t25 10.5h857q14 0 25 -10.5t11 -24.5v-72q0 -14 -11 -25t-25 -11h-857zM15 671v72q0 14 11 25t25 11h643q14 0 24.5 -11t10.5 -25v-72q0 -14 -10.5 -24.5t-24.5 -10.5h-643q-14 0 -25 10.5t-11 24.5z" />
    <glyph glyph-name="uniE77F" unicode="&#xe77f;" 
d="M51 -7q-14 0 -25 11t-11 25v71q0 14 11 25t25 11h928q14 0 25 -11t11 -25v-71q0 -14 -11 -25t-25 -11h-928zM122 421q-14 0 -25 11t-11 25v72q0 14 11 24.5t25 10.5h786q14 0 25 -10.5t11 -24.5v-72q0 -14 -11 -25t-25 -11h-786zM265 207q-14 0 -25 11t-11 25v71
q0 14 11 25t25 11h500q14 0 25 -11t11 -25v-71q0 -14 -11 -25t-25 -11h-500zM301 671v72q0 14 10.5 25t24.5 11h358q14 0 24.5 -11t10.5 -25v-72q0 -14 -10.5 -24.5t-24.5 -10.5h-358q-14 0 -24.5 10.5t-10.5 24.5z" />
    <glyph glyph-name="uniE780" unicode="&#xe780;" 
d="M51 -7q-14 0 -25 11t-11 25v71q0 14 11 25t25 11h928q14 0 25 -11t11 -25v-71q0 -14 -11 -25t-25 -11h-928zM122 421q-14 0 -25 11t-11 25v72q0 14 11 24.5t25 10.5h857q14 0 25 -10.5t11 -24.5v-72q0 -14 -11 -25t-25 -11h-857zM265 207q-14 0 -25 11t-11 25v71
q0 14 11 25t25 11h714q14 0 25 -11t11 -25v-71q0 -14 -11 -25t-25 -11h-714zM301 671v72q0 14 10.5 25t24.5 11h643q14 0 25 -11t11 -25v-72q0 -14 -11 -24.5t-25 -10.5h-643q-14 0 -24.5 10.5t-10.5 24.5z" />
    <glyph glyph-name="uniE781" unicode="&#xe781;" 
d="M51 -7q-14 0 -25 11t-11 25v71q0 14 11 25t25 11h928q14 0 25 -11t11 -25v-71q0 -14 -11 -25t-25 -11h-928zM51 207q-14 0 -25 11t-11 25v71q0 14 11 25t25 11h928q14 0 25 -11t11 -25v-71q0 -14 -11 -25t-25 -11h-928zM51 421q-14 0 -25 11t-11 25v72q0 14 11 24.5
t25 10.5h928q14 0 25 -10.5t11 -24.5v-72q0 -14 -11 -25t-25 -11h-928zM15 671v72q0 14 11 25t25 11h928q14 0 25 -11t11 -25v-72q0 -14 -11 -24.5t-25 -10.5h-928q-14 0 -25 10.5t-11 24.5z" />
    <glyph glyph-name="uniE782" unicode="&#xe782;" horiz-adv-x="848" 
d="M835 605h-602v192h602v-192zM835 305h-602v191h602v-191zM150 701.5q0 -27.5 -20 -48t-48 -20.5t-48 20.5t-20 48t20 48t48 20.5t48 -20.5t20 -48zM835 3h-602v192h602v-192zM150 400q0 -29 -20 -48.5t-48 -19.5t-48 19.5t-20 48.5t20 48.5t48 19.5t48 -19.5t20 -48.5z
M150 98q0 -27 -20 -47.5t-48 -20.5t-48 20.5t-20 48t20 48.5t48 21t48 -21t20 -49z" />
    <glyph glyph-name="uniE783" unicode="&#xe783;" horiz-adv-x="846" 
d="M833 605h-602v192h602v-192zM833 305h-602v191h602v-191zM833 3h-602v192h602v-192zM148 496v-191l-134 95z" />
    <glyph glyph-name="uniE784" unicode="&#xe784;" horiz-adv-x="846" 
d="M833 605h-602v192h602v-192zM833 305h-602v191h602v-191zM833 3h-602v192h602v-192zM14 496l134 -96l-134 -95v191z" />
    <glyph glyph-name="uniE788" unicode="&#xe788;" horiz-adv-x="950" 
d="M795 680q135 -131 140 -322q2 -192 -131 -327q-134 -137 -323 -141q-192 -2 -327 131q-138 134 -139 323q-4 190 130 327q134 138 324 139t326 -130zM291 706l62 -104q55 28 122 28t122 -28l62 104q-87 46 -190 44q-93 0 -178 -44zM223 228q-28 59 -28 122q0 65 28 124
l-102 62q-46 -88 -46 -190q1 -94 46 -180zM659 -4l-62 104q-60 -30 -122 -30t-122 30l-62 -104q85 -46 190 -46q100 5 178 46zM631 195q64 64 64 155q0 92 -64 156t-156 64t-156 -64t-64 -156q0 -91 64 -155q65 -65 156 -65t156 65zM727 228l104 -62q46 94 44 190
q0 95 -44 180l-104 -62q28 -59 28 -124q0 -63 -28 -122z" />
    <glyph glyph-name="uniE789" unicode="&#xe789;" horiz-adv-x="591" 
d="M566 130q29 -80 -17 -157q-45 -77 -139 -111q-94 -28 -175 9q-80 37 -103 117l-106 384q-22 75 7 139t83 101l-96 186q-14 35 14 48q30 18 48 -14l98 -192q79 22 154 -16q73 -37 102 -116zM242 404q25 9 39 34t5 56q-9 26 -33 40t-55 6q-25 -9 -39 -34t-5 -56
q9 -26 33 -40t55 -6z" />
    <glyph glyph-name="uniE78B" unicode="&#xe78b;" horiz-adv-x="250" 
d="M125 460q46 0 78 -32t32 -78q0 -44 -32.5 -77t-77.5 -33t-77.5 33t-32.5 77q0 46 32 78t78 32z" />
    <glyph glyph-name="uniE78C" unicode="&#xe78c;" horiz-adv-x="600" 
d="M125 460q46 0 78 -32t32 -78q0 -44 -32.5 -77t-77.5 -33q-46 0 -78 32t-32 78t32 78t78 32zM475 460q46 0 78 -32t32 -78q0 -44 -33.5 -77t-76.5 -33q-46 0 -78 32t-32 78t32 78t78 32z" />
    <glyph glyph-name="uniE78D" unicode="&#xe78d;" horiz-adv-x="950" 
d="M125 460q46 0 78 -32t32 -78q0 -44 -32.5 -77t-77.5 -33t-77.5 33t-32.5 77q0 46 32 78t78 32zM475 460q46 0 78 -32t32 -78q0 -44 -33.5 -77t-76.5 -33t-76.5 33t-33.5 77q0 46 32 78t78 32zM825 460q46 0 78 -32t32 -78q0 -44 -32.5 -77t-77.5 -33t-77.5 33t-32.5 77
q0 46 32 78t78 32z" />
    <glyph glyph-name="uniE78E" unicode="&#xe78e;" horiz-adv-x="887" 
d="M15 350q0 109 47.5 197t123.5 145q28 17 55 13t45 -27.5t14 -52.5t-28 -47q-114 -87 -114 -228q0 -118 84 -202t202 -84t202 84q83 83 83 202q0 141 -114 228q-22 17 -27 46t13 54q16 23 45.5 27.5t54.5 -13.5q76 -58 123.5 -145.5t47.5 -196.5q0 -91 -35 -169.5
t-90 -133.5q-56 -56 -134.5 -91t-168.5 -35t-168.5 35t-134.5 91t-91 134.5t-35 168.5zM372 421v358q0 28 21.5 49.5t50.5 21.5q28 0 49.5 -21t21.5 -50v-358q0 -29 -21.5 -50t-49.5 -21q-29 0 -50.5 21.5t-21.5 49.5z" />
    <glyph glyph-name="uniE78F" unicode="&#xe78f;" horiz-adv-x="1046" 
d="M612 -7q7 0 12.5 5.5t4.5 12.5l-11 143q-2 17 -19 17h-152q-17 0 -19 -17l-11 -143q-1 -7 4.5 -12.5t12.5 -5.5h-393q-26 0 -26 41q0 30 15 64l232 583q4 10 14.5 18t21.5 8h189q-7 0 -12.5 -5.5t-6.5 -12.5l-8 -107q-1 -8 4 -13t12 -5h93q8 0 13 5.5t4 12.5l-8 107
q-1 7 -6.5 12.5t-12.5 5.5h189q24 0 35 -26l233 -583q15 -35 15 -64q0 -41 -26 -41h-393zM439 294q-1 -7 4 -11t12 -4h136q7 0 12 4t4 11v2l-13 179q-1 7 -6.5 12.5t-12.5 5.5h-104q-7 0 -12.5 -5.5t-6.5 -12.5l-13 -179v-2z" />
    <glyph glyph-name="uniE790" unicode="&#xe790;" 
d="M104 -7q-37 0 -63 26t-26 63v607q0 37 26 63.5t63 26.5h822q37 0 63 -26.5t26 -63.5v-607q0 -37 -26 -63t-63 -26h-822zM86 82q0 -8 5 -13t13 -5h822q8 0 13 5t5 13v464q0 8 -5 13t-13 5h-822q-8 0 -13 -5t-5 -13v-464zM176 136q-8 0 -13 5t-5 13v35q0 7 5 12.5t13 5.5
h35q7 0 12.5 -5.5t5.5 -12.5v-35q0 -8 -5.5 -13t-12.5 -5h-35zM176 279q-18 0 -18 17v36q0 8 5 13t13 5h35q7 0 12.5 -5t5.5 -13v-36q0 -17 -18 -17h-35zM176 421q-8 0 -13 5.5t-5 12.5v36q0 7 5 12.5t13 5.5h35q7 0 12.5 -5.5t5.5 -12.5v-36q0 -7 -5.5 -12.5t-12.5 -5.5
h-35zM319 136q-7 0 -12.5 5t-5.5 13v35q0 7 5.5 12.5t12.5 5.5h535q8 0 13 -5.5t5 -12.5v-35q0 -8 -5 -13t-13 -5h-535zM319 279q-18 0 -18 17v36q0 8 5.5 13t12.5 5h535q8 0 13 -5t5 -13v-36q0 -17 -18 -17h-535zM301 439v36q0 7 5.5 12.5t12.5 5.5h535q8 0 13 -5.5
t5 -12.5v-36q0 -7 -5 -12.5t-13 -5.5h-535q-7 0 -12.5 5.5t-5.5 12.5z" />
    <glyph glyph-name="uniE791" unicode="&#xe791;" horiz-adv-x="816" 
d="M15 350h357v-357h-357v357zM15 779h357v-358h-357v358zM301 65v214h-215v-214h215zM301 493v214h-215v-214h215zM158 207h71v-71h-71v71zM158 636h71v-72h-71v72zM444 350h214v-71h71v71h72v-214h-215v71h-71v-214h-71v357zM444 779h357v-358h-357v358zM729 493v214h-214
v-214h214zM586 64h72v-71h-72v71zM586 636h72v-72h-72v72zM729 -7v71h72v-71h-72z" />
    <glyph glyph-name="uniE792" unicode="&#xe792;" 
d="M15 779h143v-858h-143v858zM194 779h71v-858h-71v858zM301 779h35v-858h-35v858zM354 779h36v-858h-36v858zM444 779h71v-858h-71v858zM586 779h143v-858h-143v858zM765 779h36v-858h-36v858zM854 779h36v-858h-36v858zM944 -79v858h71v-858h-71z" />
    <glyph glyph-name="uniE793" unicode="&#xe793;" horiz-adv-x="836" 
d="M138 630q109 120 280 120t280 -120q120 -110 120 -280t-120 -280q-109 -120 -280 -120t-280 120q-120 110 -120 280t120 280zM118 350q0 -130 91 -210q81 -90 209 -90v600q-130 0 -209 -90q-91 -80 -91 -210z" />
    <glyph glyph-name="uniE794" unicode="&#xe794;" horiz-adv-x="601" 
d="M60 432l42 62l49 73q27 42 58 104.5t44 107.5q5 15 18 25t30 10t30 -10t17 -25q13 -45 44 -107.5t58 -104.5q10 -16 47 -70t44 -65q45 -70 45 -153q0 -119 -83 -202q-84 -84 -202 -84t-202 84t-84 202q0 81 45 153zM158 207q0 -29 21 -50t50 -21t50.5 21t21.5 50
q0 10 -4 21.5t-7.5 17.5t-11.5 18l-11 15q-18 27 -26 53q-1 9 -12 9q-9 0 -11 -9q-9 -29 -40 -74q-20 -31 -20 -51z" />
    <glyph glyph-name="uniE795" unicode="&#xe795;" horiz-adv-x="928" 
d="M576 283v-112h-55v-166q0 -23 -17 -40t-39.5 -17t-39 16.5t-16.5 40.5v166h-56v112h56v503q0 24 16.5 39.5t38.5 15.5q24 0 40.5 -16t16.5 -39v-503h55zM911 618v-112h-55v-501q0 -23 -16.5 -40t-40.5 -17q-23 0 -39 16.5t-16 40.5v501h-56v112h56v168q0 24 15.5 39.5
t39.5 15.5t40.5 -16t16.5 -39v-168h55zM241 506v-111h-55v-390q0 -23 -16 -40t-40 -17q-23 0 -39.5 16.5t-16.5 40.5v390h-56v111h56v280q0 24 16 39.5t40 15.5t40 -16t16 -39v-280h55z" />
    <glyph glyph-name="uniE796" unicode="&#xe796;" horiz-adv-x="928" 
d="M911 60l-112 -112l-390 391l-168 -168l-223 670l670 -223l-167 -167z" />
    <glyph glyph-name="uniE797" unicode="&#xe797;" horiz-adv-x="928" 
d="M608 451l-225 382q47 8 81 8q177 0 304 -120zM575 283l233 395q103 -125 103 -283q0 -53 -16 -112h-320zM479 563h-427q37 91 109 158t167 97zM455 228h423q-37 -90 -108.5 -156.5t-164.5 -98.5zM356 506l-234 -396q-104 126 -104 285q0 52 16 111h322zM323 341l227 -384
q-48 -9 -86 -9q-172 0 -302 120z" />
    <glyph glyph-name="uniE798" unicode="&#xe798;" horiz-adv-x="928" 
d="M864 591q47 -97 47 -196q0 -36 -9 -82h-316zM606 416v400q145 -48 228 -172zM485 254h401q-50 -146 -172 -229zM547 513l-281 280q96 48 198 48q38 0 83 -8v-320zM383 273l277 -278q-97 -47 -196 -47q-34 0 -81 9v316zM323 373v-400q-145 48 -228 172zM26 477h317
l-278 -278q-47 97 -47 196q0 36 8 82zM214 764l228 -228h-399q48 145 171 228z" />
    <glyph glyph-name="uniE799" unicode="&#xe799;" horiz-adv-x="928" 
d="M464.5 841q184.5 0 315.5 -131t131 -315.5t-131 -315.5t-315.5 -131t-315.5 131t-131 315.5t131 315.5t315.5 131zM464.5 729q-106.5 0 -192.5 -62t-122 -161h629q-36 99 -122 161t-192.5 62zM464 339q24 0 40.5 16.5t16.5 39.5q0 24 -17 40t-39.5 16t-39 -16t-16.5 -40
t16.5 -40t38.5 -16zM130 395q0 -124 79 -216.5t199 -112.5q-2 137 -83 233t-195 96zM521 66q120 20 199 112.5t79 216.5q-114 0 -195 -96t-83 -233z" />
    <glyph glyph-name="uniE79A" unicode="&#xe79a;" horiz-adv-x="928" 
d="M464 246q0 -124 -87 -211t-210 -87q-81 0 -149 40q68 39 108.5 107.5t40.5 150.5q0 61 43.5 105t105 44t105 -44t43.5 -105zM878.5 808.5q32.5 -32.5 32.5 -79t-33 -79.5l-318 -318q-20 55 -61.5 97t-96.5 62l318 318q32 32 79 32t79.5 -32.5z" />
    <glyph glyph-name="uniE79B" unicode="&#xe79b;" horiz-adv-x="928" 
d="M353 171q0 -92 -65.5 -157.5t-157.5 -65.5q-62 0 -112 30q52 29 82 80.5t30 112.5q0 46 33 79t78.5 33t78.5 -33t33 -79zM878.5 808.5q32.5 -32.5 32.5 -79t-33 -79.5l-422 -421q-16 58 -58 100t-99 57l421 423q32 32 79 32t79.5 -32.5z" />
    <glyph glyph-name="uniE79C" unicode="&#xe79c;" horiz-adv-x="928" 
d="M845 459l-16 -16l81 -81l-80 -78l-80 81l-415 -417h-208l-109 112v201l418 418l-83 84l78 78l83 -83l16 17q65 65 157.5 65t157.5 -65q66 -65 66 -157.5t-66 -158.5zM306 78l366 365l-158 158l-360 -361q63 -3 106 -46q48 -48 46 -116z" />
    <glyph glyph-name="uniE79D" unicode="&#xe79d;" horiz-adv-x="928" 
d="M18 228l446 -112l447 112v-112l-447 -111l-446 111v112zM18 451l446 -112l447 112v-112l-447 -111l-446 111v112zM18 674l446 112l447 -112v-111l-447 -112l-446 112v111z" />
    <glyph glyph-name="uniE79E" unicode="&#xe79e;" horiz-adv-x="928" 
d="M18 171l446 -111l447 111v-111l-447 -112l-446 112v111zM18 395l446 -112l447 112v-112l-447 -112l-446 112v112zM18 618l446 -112l447 112v-112l-447 -111l-446 111v112zM18 841l446 -112l447 112v-112l-447 -111l-446 111v112z" />
    <glyph glyph-name="uniE7A0" unicode="&#xe7a0;" horiz-adv-x="928" 
d="M706 222q105 0 205 56q-42 -145 -162.5 -237.5t-274.5 -92.5q-188 0 -322 133.5t-134 322.5q0 154 92.5 274.5t237.5 162.5q-56 -100 -56 -205q0 -172 121.5 -293t292.5 -121z" />
    <glyph glyph-name="uniE7A1" unicode="&#xe7a1;" horiz-adv-x="887" 
d="M836 421q14 0 25 -10.5t11 -24.5v-72q0 -118 -57.5 -206t-150.5 -136q-98 -51 -220 -51q-126 0 -223.5 52t-150.5 139q-55 89 -55 202v72q0 14 11 24.5t25 10.5h214q14 0 25 -10.5t11 -24.5v-72q0 -54 40.5 -80.5t102.5 -26.5q93 0 129 57q13 20 13 50v72q0 14 11 24.5
t25 10.5h214zM51 493q-14 0 -25 11t-11 25v214q0 14 11 25t25 11h214q14 0 25 -11t11 -25v-214q0 -14 -11 -25t-25 -11h-214zM586 529v214q0 14 11 25t25 11h214q14 0 25 -11t11 -25v-214q0 -14 -11 -25t-25 -11h-214q-14 0 -25 11t-11 25z" />
    <glyph glyph-name="uniE7A2" unicode="&#xe7a2;" horiz-adv-x="805" 
d="M455 399v335q137 0 234 -97t97 -235v-3h-331zM350 294h332v4q0 -138 -97 -235t-235 -97t-234.5 97t-96.5 234.5t96.5 235t234.5 97.5v-336z" />
    <glyph glyph-name="uniE7A3" unicode="&#xe7a3;" horiz-adv-x="873" 
d="M424 300l-296 -295q-110 128 -110 295t110 295zM468 339l-362 360q157 130 362 142v-502zM523 729q143 -21 238 -129.5t95 -256.5q0 -164 -115 -279.5t-278 -115.5q-127 0 -233 78l293 289v414z" />
    <glyph glyph-name="uniE7A4" unicode="&#xe7a4;" horiz-adv-x="928" 
d="M353 397q0 112 111.5 112t111.5 -112t-111.5 -112t-111.5 112zM725 713q0 -23 16 -39.5t39 -16.5q18 0 35 14q96 -124 96 -274q0 -128 -62.5 -229t-159.5 -157q-103 -60 -225 -60q-128 0 -229 62t-157 160q-60 103 -60 224q0 149 95 272q15 -12 32 -12q24 0 40.5 16.5
t16.5 39.5q0 18 -12 33q96 77 219 93q3 -22 18.5 -36.5t37 -14.5t37 14.5t18.5 36.5q121 -15 218 -90q-13 -15 -13 -36zM241 397q0 -91 65.5 -157t158 -66t158 66t65.5 157q0 92 -66 158l-158 158l-157 -158q-66 -66 -66 -158z" />
    <glyph glyph-name="uniE7A5" unicode="&#xe7a5;" horiz-adv-x="990" 
d="M829 694q141 -137 146 -336q2 -200 -136 -342q-137 -141 -338 -146q-200 -2 -341 137q-144 140 -145 337q-5 200 135 342t339 144q198 2 340 -136zM767 86q109 112 108 270q-1 157 -115 267q-111 109 -269 107q-157 -2 -267 -114q-109 -111 -107 -270q1 -158 114 -267
q111 -109 270 -107q157 2 266 114zM317 350q0 -80 60 -80q40 0 58 40l56 -30q-19 -35 -50 -52q-32 -20 -70 -20q-63 0 -100.5 38.5t-37.5 103.5q0 64 36.5 104t97.5 40q87 0 124 -66l-62 -32q-17 36 -52 36q-60 0 -60 -82zM643 270q43 0 56 40l58 -30q-17 -31 -48.5 -51.5
t-71.5 -20.5q-64 0 -100 38q-38 36 -38 104q0 63 38 106q38 38 98 38q84 0 120 -66l-60 -32q-17 36 -52 36q-62 0 -62 -82q0 -35 15.5 -57.5t46.5 -22.5z" />
    <glyph glyph-name="uniE7A6" unicode="&#xe7a6;" horiz-adv-x="927" 
d="M914 400q0 -130 -63 -231t-162 -159q-103 -60 -225 -60q-130 0 -231.5 63t-158.5 161q-60 104 -60 226q0 130 63 231t161 159q103 60 226 60q129 0 230.5 -63t158.5 -161q61 -104 61 -226zM593 474l105 -92v252h-252l91 -104l-203 -204l-104 92v-252h252l-92 104z" />
    <glyph glyph-name="uniE7A7" unicode="&#xe7a7;" horiz-adv-x="450" 
d="M225 294l-211 212h423z" />
    <glyph glyph-name="uniE7A8" unicode="&#xe7a8;" horiz-adv-x="450" 
d="M437 294h-423l211 212z" />
    <glyph glyph-name="uniE7A9" unicode="&#xe7a9;" horiz-adv-x="927" 
d="M914 400q0 -130 -63 -231t-162 -159q-103 -60 -225 -60q-130 0 -231.5 63t-158.5 161q-60 104 -60 226q0 130 63 231t161 159q103 60 226 60q129 0 230.5 -63t158.5 -161q61 -104 61 -226zM680 328l162 162h-108q-28 83 -108 137q-81 55 -167 55q-118 0 -201.5 -84
t-83.5 -201t83.5 -200.5t201.5 -83.5t201 83l-56 64q-59 -58 -140.5 -58t-139.5 58t-58 140t58 140t140 58q85 0 140 -58q5 -5 8.5 -13t7 -19.5t6.5 -17.5h-108z" />
    <glyph glyph-name="uniE7AA" unicode="&#xe7aa;" horiz-adv-x="927" 
d="M914 400q0 -130 -63 -231t-162 -159q-103 -60 -225 -60q-130 0 -231.5 63t-158.5 161q-60 104 -60 226q0 130 63 231t161 159q103 60 226 60q129 0 230.5 -63t158.5 -161q61 -104 61 -226zM596 135l146 213h-93v264h-106v-264h-93zM384 453h93l-146 239l-146 -239h93
v-265h106v265z" />
    <glyph glyph-name="uniE7AB" unicode="&#xe7ab;" horiz-adv-x="990" 
d="M321 382h348v82h-348v-82zM321 228h348v82h-348v-82zM835 690q140 -140 140 -340q0 -197 -140 -339q-139 -141 -340 -141q-198 0 -339 141t-141 339q0 200 141 340q142 140 339 140q200 0 340 -140zM495 -42q162 0 277 115t115 277q0 164 -115 278q-116 114 -277 114
t-277 -114q-115 -114 -115 -278q0 -162 115 -277t277 -115z" />
    <glyph glyph-name="uniE7AC" unicode="&#xe7ac;" horiz-adv-x="1251" 
d="M1238 -50h-1224v900h1224v-900zM770 310v69h-287v-69h287zM158 379l285 122v86l-285 121v-89l188 -76l-188 -75v-89z" />
    <glyph glyph-name="uniE7AD" unicode="&#xe7ad;" horiz-adv-x="845" 
d="M832 605h-602v192h602v-192zM832 305h-602v191h602v-191zM108 605h-38v113h-41v26q43 0 50 34h29v-173zM832 3h-602v192h602v-192zM140 431q0 -23 -15.5 -38t-37 -29t-29.5 -24h82v-30h-126q0 23 13 41.5t32 28.5q45 23 45 49q0 11 -6.5 17.5t-18.5 6.5q-26 0 -28 -37
h-33q0 31 16.5 49.5t46.5 18.5q25 0 42 -14.5t17 -38.5zM141 67q0 -25 -18.5 -40.5t-45.5 -15.5q-28 0 -45.5 16t-17.5 44v2h34q0 -33 28.5 -33t28.5 27q0 13 -9 19.5t-22 5.5h-8v24h5q31 0 31 22q0 10 -7 16t-18 6q-26 0 -26 -30h-33q1 26 16.5 42t42.5 16q25 0 41.5 -13
t16.5 -34q0 -12 -7 -22t-17 -12q30 -7 30 -40z" />
    <glyph glyph-name="uniE7AE" unicode="&#xe7ae;" horiz-adv-x="843" 
d="M294 -25q-35 0 -59.5 24.5t-24.5 59.5t24.5 59t59.5 24t59.5 -24t24.5 -59t-24.5 -59.5t-59.5 -24.5zM699 -25q-34 0 -58.5 24.5t-24.5 59.5t24.5 59t58.5 24q35 0 58.5 -24t24.5 -59q0 -35 -24 -59.5t-59 -24.5zM776 584q22 -2 35.5 -16t13.5 -34v-282q0 -21 -15 -36
t-36 -15h-478q-17 0 -31.5 12.5t-16.5 30.5l-89 317q-15 58 -41 65q-10 3 -41.5 4t-44.5 11t-13 40q0 19 9.5 29.5t19.5 11.5l10 2l2 1h6h10q124 0 159 -103zM735 498l-114 8v-90h114v82zM581 416v93l-125 9v-102h125zM456 388v-97h125v97h-125zM256 530l38 -114h122v104z
M334 291h82v97h-112zM621 291h114v97h-114v-97z" />
    <glyph glyph-name="uniE7AF" unicode="&#xe7af;" horiz-adv-x="986" 
d="M168 50q-60 0 -105 45.5t-45 104.5v350q0 59 45 104.5t105 45.5h550q49 0 85 -50q41 -41 65 -100h9q10 5 16 5q36 0 55.5 -28.5t19.5 -72.5v-159q0 -49 -30 -79q-14 -21 -40 -21q-21 0 -30 5q0 -59 -45 -104.5t-105 -45.5h-550zM168 150h550q50 0 50 50v350q0 50 -50 50
h-550q-50 0 -50 -50v-350q0 -50 50 -50zM168 200v350h150v-350h-150z" />
    <glyph glyph-name="uniE7B0" unicode="&#xe7b0;" horiz-adv-x="473" 
d="M455 720v-686q0 -33 -23.5 -56.5t-56.5 -23.5h-276q-33 0 -56.5 23.5t-23.5 56.5v686q0 10 8 18t18 8h383q12 0 19.5 -8t7.5 -18zM80 619v-244h314v244h-314zM172 91h-92q0 -23 15 -39t39 -16h38v55zM172 168h-92v-53h92v53zM172 244h-92v-53h92v53zM172 320h-92v-52h92
v52zM281 91h-89v-55h89v55zM281 168h-89v-53h89v53zM281 244h-89v-53h89v53zM281 320h-89v-52h89v52zM339 36q25 0 40 16t15 39h-92v-55h37zM394 168h-92v-53h92v53zM394 244h-92v-53h92v53zM394 320h-92v-52h92v52zM205 692q-16 0 -16 -16q0 -17 16 -17h64q15 0 15 17
q0 16 -15 16h-64z" />
    <glyph glyph-name="uniE7B1" unicode="&#xe7b1;" horiz-adv-x="748" 
d="M730 688v-676q0 -41 -29 -70.5t-70 -29.5h-513q-42 0 -70.5 29.5t-28.5 70.5v676q0 41 28.5 70.5t70.5 29.5h513q41 0 70 -29.5t29 -70.5zM610 668h-471v-600h471v600zM375 -55q20 0 33.5 14.5t13.5 32.5q0 20 -13.5 34t-33.5 14t-33.5 -14t-13.5 -34q0 -18 13.5 -32.5
t33.5 -14.5z" />
    <glyph glyph-name="uniE7B2" unicode="&#xe7b2;" horiz-adv-x="537" 
d="M329 193q0 -25 -17.5 -43t-42.5 -18t-42.5 18t-17.5 43t17.5 42t42.5 17t42.5 -17t17.5 -42zM519 688v-676q0 -31 -22 -52.5t-53 -21.5h-350q-32 0 -53.5 21.5t-21.5 52.5v676q0 31 21.5 52.5t53.5 21.5h350q31 0 53 -21.5t22 -52.5zM428 192q0 67 -47 113.5t-112 46.5
t-112 -47t-47 -112t47 -111.5t112 -46.5q66 0 112.5 46.5t46.5 110.5zM441 432v243h-345v-243h345z" />
    <glyph glyph-name="uniE7B3" unicode="&#xe7b3;" horiz-adv-x="795" 
d="M776 506v-314l-222 -221h-314l-221 221v314l221 223h314zM742 206v286l-202 203h-286l-202 -203v-286l202 -201h286zM272 652h250l178 -177v-251l-178 -176h-250l-177 176v251z" />
    <glyph glyph-name="uniE7B4" unicode="&#xe7b4;" horiz-adv-x="1007" 
d="M19 722h970v-744h-970v744zM538 270h158v160h-158v-160zM696 45v157h-158v-157h158zM538 655v-157h158v157h-158zM921 430h-157v-160h157v160zM921 45v157h-157v-157h157zM921 655h-157v-157h157v157zM86 270h159v160h-159v-160zM245 45v157h-159v-157h159zM86 655v-157
h159v157h-159zM470 430h-158v-160h158v160zM470 45v157h-158v-157h158zM470 498v157h-158v-157h158z" />
    <glyph glyph-name="uniE7B5" unicode="&#xe7b5;" horiz-adv-x="833" 
d="M381 40l-150 -58l-15 26l165 102v58h-317q-19 0 -32 13t-13 31t11.5 30.5t29.5 15.5v412q-18 1 -29.5 14.5t-11.5 30.5q0 19 13 32t32 13h326l19 48h11l19 -48h331q19 0 32 -13t13 -32t-13 -32t-32 -13v-412q19 0 32 -13.5t13 -32t-13 -31.5t-32 -13h-328v-58l167 -102
l-15 -26l-152 58v-115q0 -14 -9 -23.5t-22 -9.5t-21.5 9.5t-8.5 23.5v115zM712 260v405h-594v-405h594z" />
    <glyph glyph-name="uniE7B6" unicode="&#xe7b6;" horiz-adv-x="636" 
d="M18 50v200q0 26 10 26q1 0 18.5 -13t21.5 -13q11 -10 40 -10q35 0 55.5 34.5t20.5 75.5t-21 75.5t-55 34.5q-29 0 -50 -15q-27 -21 -30 -21q-10 10 -10 26v100q0 44 60 54h106q18 -4 34 -4q24 0 24 15q-24 24 -24 35q-10 11 -10 40q0 34 34.5 54.5t75.5 20.5t75.5 -20.5
t34.5 -54.5q0 -28 -15 -50l-19 -25q6 -15 44 -15h80q44 10 70 -5q30 -15 30 -45v-100q0 -26 -10 -26q-1 0 -18.5 13t-21.5 13q-11 10 -40 10q-35 0 -55.5 -34.5t-20.5 -75.5t21 -75.5t55 -34.5q22 0 55 15q21 21 25 21q10 -10 10 -26v-200q0 -50 -50 -50h-150q-24 0 -24 15
q24 24 24 35q10 11 10 40q0 34 -34.5 54.5t-75.5 20.5t-75.5 -20.5t-34.5 -54.5q0 -28 15 -50l19 -25q-6 -15 -24 -15h-150q-50 0 -50 50z" />
    <glyph glyph-name="uniE7B7" unicode="&#xe7b7;" horiz-adv-x="920" 
d="M58 435q70 103 100 141l64 84q31 40 80 40h551q49 0 49 -50v-600q0 -50 -49 -50h-551q-39 0 -80 40q0 6 -64 84q-82 100 -100 136q-40 65 -40 90q0 20 40 85zM318 200l85 -85l150 150l150 -150l85 85l-150 150l150 150l-85 85l-150 -150l-150 150l-85 -85l150 -150z" />
    <glyph glyph-name="uniE800" unicode="&#xe800;" 
d="M198 850h634q76 0 129.5 -53.5t53.5 -129.5v-634q0 -76 -53.5 -129.5t-129.5 -53.5h-634q-76 0 -129.5 53.5t-53.5 129.5v634q0 76 53.5 129.5t129.5 53.5zM542 -150h148v391h147l6 141h-153v102q0 33 11.5 48t47.5 15l90 -1l4 132q-43 5 -100 5q-100 0 -150.5 -52
t-50.5 -129v-120h-104v-141h104v-391z" />
    <glyph glyph-name="uniE801" unicode="&#xe801;" horiz-adv-x="1134" 
d="M161 469q-44 30 -72.5 79t-28.5 110q0 62 31 115q82 -101 202 -166t266 -72q-6 28 -6 52q0 94 66.5 160.5t159.5 66.5q99 0 167 -72q76 14 144 56q-26 -82 -100 -126q66 8 130 36q-46 -69 -113 -118q0 -4 0.5 -13.5t0.5 -15.5q0 -191 -108 -357q-117 -180 -311 -250
q-108 -39 -227 -39q-191 0 -348 102q27 -3 54 -3q158 0 282 97q-76 1 -133.5 46.5t-78.5 111.5q19 -4 42 -4q34 0 60 7q-75 16 -128.5 78t-53.5 146v2q50 -28 103 -29z" />
    <glyph glyph-name="uniE802" unicode="&#xe802;" 
d="M208 850h614q80 0 136.5 -56.5t56.5 -136.5v-614q0 -80 -56.5 -136.5t-136.5 -56.5h-614q-80 0 -136.5 56.5t-56.5 136.5v614q0 80 56.5 136.5t136.5 56.5zM838 510q6 140 -104 143q-149 5 -202 -167q28 11 53 11q54 0 48 -61q-3 -36 -48 -107t-68 -71q-29 0 -53 110
q-6 26 -28 163q-10 61 -35.5 89.5t-67.5 24.5q-36 -3 -106 -64l-104 -93l34 -44q49 34 56 34q38 0 69 -115l57 -212q43 -115 106 -115q101 0 247 189q142 182 146 285z" />
    <glyph glyph-name="uniE803" unicode="&#xe803;" 
d="M208 850h614q80 0 136.5 -56.5t56.5 -136.5v-614q0 -80 -56.5 -136.5t-136.5 -56.5h-614q-80 0 -136.5 56.5t-56.5 136.5v614q0 80 56.5 136.5t136.5 56.5zM549 709h-99q-18 -147 -142 -187v-99h77v-245q0 -48 9.5 -72.5t36.5 -47.5q52 -46 147 -46q81 0 160 38v109
q-52 -34 -106 -34q-26 0 -47.5 11t-28.5 30t-7 78v179h165v109h-165v177z" />
    <glyph glyph-name="uniE804" unicode="&#xe804;" 
d="M922 850h-815q-41 0 -66.5 -22.5t-25.5 -69.5v-828q0 -37 26 -58t66 -21h815q40 0 66 21t26 58v828q0 47 -25.5 69.5t-66.5 22.5zM751 771h79v-184h185v-77h-185v-186h-79v186h-184v77h184v184zM248 324q65 0 97 36q38 44 38 94q0 56 -19.5 116t-62.5 106t-99 46
q-29 0 -57 -13t-45 -35q-28 -35 -28 -108q0 -39 10.5 -79.5t30.5 -78t55.5 -61t79.5 -23.5zM433 139q73 -62 96 -89q51 -61 51 -128q0 -47 -11 -71h-85q6 21 6 26q0 18 -7.5 35t-16.5 29.5t-31 31t-36 29l-48 34.5l-51 35q-12 1 -34 1q-82 0 -152 -23q-69 -26 -99 -67v84
q23 18 58.5 29t61 13t66.5 3t49 2q-15 19 -21.5 28.5t-14 29.5t-7.5 41t14 57q-2 0 -19.5 -1.5t-26.5 -1.5q-90 0 -160 58v355q92 90 261 92h307l-81 -66h-89q89 -77 89 -184q0 -73 -30 -117.5t-88 -89.5q-41 -41 -41 -72t38 -62z" />
    <glyph glyph-name="uniE805" unicode="&#xe805;" 
d="M973 278q42 -69 42 -148q0 -116 -82 -198t-198 -82q-79 0 -148 42q-36 -6 -72 -6q-192 0 -328 136t-136 328q0 36 6 72q-42 69 -42 148q0 116 82 198t198 82q79 0 148 -42q36 6 72 6q192 0 328 -136t136 -328q0 -36 -6 -72zM324 275q-24 0 -41.5 -15.5t-17.5 -38.5
q0 -42 29.5 -80.5t67.5 -58.5q60 -33 153 -33q158 0 220 90q30 42 30 96q0 67 -36.5 102.5t-101.5 56.5q-23 7 -83 22t-73 18q-73 21 -73 64q0 31 32.5 48.5t74.5 17.5q53 0 75 -18q23 -17 40 -51q14 -23 25 -33q13 -11 35 -11q23 0 40.5 17t17.5 40q0 52 -54 94
q-63 49 -170 49q-150 0 -208 -78q-29 -38 -29 -86q0 -95 100 -139q42 -18 113 -34q46 -10 80 -20q66 -21 66 -72q0 -39 -37 -61t-87 -22q-54 0 -82 21.5t-47 66.5q-20 48 -59 48z" />
    <glyph glyph-name="uniE806" unicode="&#xe806;" 
d="M211 850h608q81 0 138.5 -57.5t57.5 -138.5v-608q0 -81 -57.5 -138.5t-138.5 -57.5h-608q-81 0 -138.5 57.5t-57.5 138.5v608q0 81 57.5 138.5t138.5 57.5zM656 375q34 14 55.5 45.5t21.5 74.5q0 54 -32.5 85.5t-86.5 39.5q-28 4 -94 4h-197v-558h224q107 0 165 46
q58 44 58 125q0 57 -31 90.5t-83 44.5v3zM590 466q0 -58 -59 -61q-10 -1 -51 -1h-17v118h9q7 0 24.5 0.5t24.5 0t19.5 -1.5t18.5 -4t13 -9t11 -14q7 -13 7 -28zM625 240q0 -34 -22 -51.5t-57 -19.5q-14 -1 -76 -1h-7v140h25h15q26 0 39 -0.5t32 -3.5t28 -10t16 -20.5
t7 -33.5z" />
    <glyph glyph-name="uniE807" unicode="&#xe807;" 
d="M156 850h718q58 0 99.5 -41t41.5 -100v-718q0 -59 -41.5 -100t-99.5 -41h-718q-58 0 -99.5 41t-41.5 100v718q0 59 41.5 100t99.5 41zM537 748q-85 0 -145 -60.5t-60 -145.5t60 -145.5t145 -60.5t145.5 60.5t60.5 145.5t-60.5 145.5t-145.5 60.5zM399 320q-23 14 -46.5 8
t-36.5 -27t-7.5 -45t26.5 -38q56 -35 119 -50l-115 -115q-18 -18 -18 -42.5t18 -42.5t43 -18q24 0 42 18l113 113l113 -113q18 -18 43 -18t43 18t18 42.5t-18 42.5l-115 115q63 15 119 50q21 14 26.5 38t-7.5 45q-14 21 -38 26.5t-45 -7.5q-63 -40 -138.5 -40t-138.5 40z
M452 542q0 35 25 60t60 25t60.5 -25t25.5 -60t-25.5 -60t-60.5 -25t-60 25t-25 60z" />
    <glyph glyph-name="uniE808" unicode="&#xe808;" horiz-adv-x="986" 
d="M97 591q18 231 279 255q98 7 205 -32q15 8 31 14l30 10q14 5 32 8l28 4q11 1 29.5 0.5t26.5 -0.5t28 -2.5t25 -3t25 -4t22 -3.5q60 -16 85.5 -42t24.5 -69l3 -91q-5 -30 -12.5 -48t-22 -27.5t-20.5 -11.5t-27 -7q3 -2 9.5 -5.5t9.5 -6.5t7 -12.5t6 -25.5v-111
q-12 -28 -29 -43.5t-30.5 -19.5t-36.5 -7l-44 3l-3 -373q-1 -13 -4 -23t-6 -17.5t-10 -13.5l-10 -9q-4 -3 -13.5 -7t-12.5 -5t-15 -3.5t-14 -3.5h-168q-74 1 -85 97q-28 -114 -108 -103l-144 3q-20 2 -35 6t-24.5 11t-15.5 13t-9.5 17t-5 16.5t-2.5 18.5t-2 18l-3 358
q-26 9 -40 19.5t-25.5 44.5t-10.5 91q1 51 14.5 78.5t27.5 34.5t40 10zM345 502v76q2 19 5.5 30t11.5 23.5t25.5 17.5t44.5 4q8 1 20 -1t19.5 -4.5t25.5 -9t24 -8.5l-2 108q-53 17 -83 22t-54 2.5t-34 -1.5q-23 -3 -43 -9.5t-34 -13.5t-26 -20t-19.5 -22t-13.5 -26l-9 -26
q-3 -9 -5.5 -28.5t-3 -26t-1.5 -27t-1 -23.5l2 -31l-81 4l2 -114h75l-5 -452h154v452l199 4v-456l153 -4l-2 460h139v102h-139q2 21 0.5 43t1.5 42.5t9.5 36t25 22.5t48.5 3q71 -10 100 -33l2 114q-83 36 -192 21q-35 -5 -60.5 -15t-41 -27.5t-25 -34t-13 -42.5t-4.5 -43.5
t-1 -47.5t-1 -44z" />
    <glyph glyph-name="uniE809" unicode="&#xe809;" horiz-adv-x="1029" 
d="M211 850h608q81 0 138 -57.5t57 -138.5v-608q0 -81 -57 -138.5t-138 -57.5h-608q-81 0 -138.5 57.5t-57.5 138.5v608q0 81 57.5 138.5t138.5 57.5zM225 522q-19 -2 -29.5 -7t-20.5 -25.5t-11 -57.5q-1 -60 13.5 -82.5t42.5 -31.5l3 -262q0 -3 1 -13t2 -14t3.5 -12t7 -12
t11 -9t17.5 -8t26 -5l106 -2q58 -7 79 75q8 -70 62 -71h123q1 0 9 2t9.5 2.5t8.5 3t9 4t7.5 5t7 7.5t5 9t4.5 12t2 15l2 273l32 -2q18 3 27 5.5t22.5 14t21.5 31.5v82q-2 12 -5 19t-5 9t-6.5 5t-6.5 4q1 0 7 2l8 2q2 0 7.5 2t6.5 3l6 4q5 3 7 6.5t5.5 8t5.5 10.5t4 13.5
t3 16.5l-2 67q1 31 -18 50.5t-63 30.5q-88 13 -132 6q-38 -6 -71 -23q-84 29 -150 24q-191 -17 -204 -187zM406 457l141 -2v33q0 22 1 34t3.5 31.5t9.5 31.5t18.5 24.5t30 20.5t44.5 11q80 10 141 -16l-1 -83q-23 18 -73 24q-22 3 -35.5 -1.5t-18.5 -18t-6.5 -25t-1.5 -33
t-1 -30.5h102v-74h-102l2 -338l-113 3v335l-145 -3v-332h-113l3 332h-54l-2 83l59 -3l-1 23q0 3 0.5 17t1 19.5t2.5 19.5t4 21t6.5 19t10 19t14 16t19 14.5t25 10.5t31.5 7q7 0 25 1.5t40 -2t61 -16.5l1 -79q-49 18 -65 16q-20 1 -32.5 -2.5t-19 -13t-8.5 -17t-4 -21.5v-56z
" />
    <glyph glyph-name="uniE80A" unicode="&#xe80a;" horiz-adv-x="1292" 
d="M621 53q-67 0 -113.5 34.5t-71.5 90.5q-62 -128 -203 -128q-95 0 -157 48q-61 48 -61 138h119q5 -40 29 -64t65 -24q47 0 76 32.5t29 81.5q0 48 -28 79t-75 31q-38 0 -65 -24q-28 -25 -51 -25q-44 0 -80 2l28 161q24 132 29 164h330v-98h-243q-13 -67 -24 -134h3
q15 19 48.5 31t67.5 12q114 0 160 -103q22 57 69.5 92.5t113.5 35.5q44 0 87.5 -18t69.5 -43q24 -23 63 -66q2 -3 6 -7l7 -7q8 10 22 25l18 20q4 5 13.5 14.5t18.5 17.5l24 19q54 44 132 44q89 0 144.5 -60.5t55.5 -151.5q0 -94 -55 -156q-56 -63 -147 -63q-116 0 -226 131
q-71 -71 -81 -78q-4 -3 -17 -11l-21 -14q-44 -29 -109 -29zM530 266q0 -42 25.5 -68t67.5 -26q75 0 155 95l-29 29l-19 20q-9 9 -48 32q-34 20 -63 20q-38 0 -63.5 -31t-25.5 -71zM919 266q30 -32 47 -46.5t48 -31.5q29 -16 61 -16q42 0 67 27.5t25 70.5t-25.5 70.5
t-67.5 27.5q-43 0 -86 -33z" />
    <glyph glyph-name="uniE80B" unicode="&#xe80b;" horiz-adv-x="804" 
d="M15 491q0 129 103 240q50 54 131 86.5t177 32.5q158 0 261 -98q102 -98 102 -231q0 -172 -87 -283t-223 -111q-44 0 -84 21t-56 51l-40 -158q-20 -76 -85 -163q-3 -5 -9.5 -12.5t-9.5 -12.5q-3 -4 -8 -3t-6 6q0 5 -2.5 21t-2.5 21q-10 98 7 177q5 24 74 313
q-18 36 -18 75l-1 15q0 59 31 104t80 45q36 0 57 -24t21 -62q0 -24 -9 -57l-20 -70q-17 -56 -22 -77q-10 -45 18 -78t73 -33q58 0 101 49t62 117t19 140q0 96 -63 158q-64 62 -176 62q-126 0 -204 -81q-79 -82 -79 -194q0 -66 38 -113q6 -7 7.5 -14t1.5 -11t-3 -14.5
t-4 -15.5q-5 -20 -6 -23q-4 -24 -28 -14q-57 23 -87.5 80.5t-30.5 138.5z" />
    <glyph glyph-name="uniE80C" unicode="&#xe80c;" horiz-adv-x="1031" 
d="M31 471q33 131 125.5 227t220.5 133q141 41 270.5 2t216.5 -123q88 -86 130.5 -211t6.5 -270q-33 -131 -125.5 -227t-220.5 -133q-141 -41 -271 -2t-217 123q-88 86 -130 211t-6 270zM572 563l-44 11l22 88l-55 14l-22 -90q-13 1 -35 8l-76 19l-14 -59l39 -9
q27 -7 26 -32l-26 -103h1l2 -1q-2 0 -3 1l-36 -144q-4 -18 -25 -13l-40 10l-27 -63l72 -18q3 0 19 -5t20 -5l-23 -91l55 -14l22 90l44 -11l-22 -90l55 -13l22 91q107 -18 151 13q29 20 43 61q31 90 -51 133q60 13 70 80q13 85 -110 126l23 91l-55 13zM472 344q20 0 47 -11
q41 -12 57 -22q14 -9 21 -15t13 -20t1 -31q-7 -27 -43 -38q-22 -7 -92 7q-20 3 -34 9zM486 399l27 110q9 -3 33.5 -8.5t40.5 -12t25 -16.5q18 -18 17 -30q-3 -46 -31 -53q-26 -6 -49 -3q-43 8 -47 9q-13 4 -16 4z" />
    <glyph glyph-name="uniE80D" unicode="&#xe80d;" horiz-adv-x="1155" 
d="M743 242q0 117 -106 117h-30v36l103 178h-124l-7 -12l-152 -511h-7l-110 370l-111 -370h-7l-177 597h77l107 -363l72 244l-35 119h77l107 -363l107 363h290v-36l-109 -188q55 -19 85.5 -66t30.5 -115q0 -79 -42 -135.5t-113 -56.5q-55 0 -92 35t-54 87l60 25
q28 -73 86 -73q34 0 54 37t20 81zM833 230q24 -42 32 -53q7 -12 43 -43q63 -43 128 -13q17 8 39.5 28.5t37.5 41.5q12 19 16 28l11 -59q-18 -35 -39 -56q-22 -26 -55.5 -41t-67.5 -8q-52 9 -94 67q-19 26 -33 58zM860 425q0 62 18 114t52 80q54 45 113 -6q17 -14 37 -50
l44 87l12 -76l-44 -85q-16 34 -45 56t-64 15q-27 -6 -49.5 -32.5t-32.5 -56.5q-19 -54 -19 -106q-1 -39 5 -63q-26 50 -26 104z" />
    <glyph glyph-name="uniE80E" unicode="&#xe80e;" horiz-adv-x="1199" 
d="M276 664q87 0 154 -49.5t93 -122.5l66 64l158 -152l437 446v-405l-267 -206l34 -36l-363 -353l-316 307q-106 1 -182 76q-75 73 -75 177q0 105 77 180q75 74 184 74zM117 257q65 -63 157 -63q34 0 65 9l220 -195l585 460l1 302l-578 -596l-90 146q20 45 20 90
q0 90 -65 152q-67 64 -158 64t-157 -64q-65 -63 -65 -152q0 -90 65 -153zM100 408q0 70 49.5 119.5t119.5 49.5t119.5 -49.5t49.5 -119.5t-49.5 -119.5t-119.5 -49.5t-119.5 49.5t-49.5 119.5z" />
    <glyph glyph-name="uniE80F" unicode="&#xe80f;" horiz-adv-x="729" 
d="M15 649h699l-66 -710l-284 -81l-284 81zM80 842h45v-44h40v44h44v-133h-44v44h-40v-44h-45v133zM169 238l1 2h300l-10 -113l-96 -27l-97 28l-6 68h-88l12 -136l179 -51l179 51l25 267h-319l-8 89h335l8 88h-439zM229 842h122v-45h-39v-88h-44v88h-39v45zM370 842h47
l27 -46l28 46h47v-133h-43v68l-32 -50v1l-30 47v-66h-44v133zM542 709v133h44v-88h62v-45h-106z" />
    <glyph glyph-name="uniE810" unicode="&#xe810;" horiz-adv-x="973" 
d="M23 58q38 136 92 238q114 216 313 352v14q-56 -24 -117.5 -64.5t-103.5 -81.5q-84 -80 -126 -138l-17 -22q-5 150 115 276q26 27 47 42l19 14q197 98 344 56q72 52 128 74q63 25 98 28l33 4q45 5 74.5 -15t33.5 -57q7 -66 -12 -128l-9 -24l-5 6q20 54 20 93q-1 60 -54 85
q-18 8 -36 10l-16 2q-34 0 -93 -18q-70 -23 -129 -66q65 -10 120.5 -40t88.5 -72q67 -83 85 -174q19 -93 17 -134l-1 -22h-557q-6 -82 44 -118q41 -29 77 -32h15q48 0 82 26t43 68h292q-31 -117 -115 -184q-77 -61 -157 -82q-85 -22 -116 -24h-19q-79 0 -107 6
q-58 -45 -127 -73q-63 -26 -103 -29l-36 -4q-43 0 -75.5 23t-43.5 57q-10 31 -13 68t7 60zM136 128q-56 -84 -42 -167q2 -14 12 -37q17 -13 44 -22q42 -11 67.5 -8.5t71.5 16.5q57 19 108 50q-84 21 -155.5 64.5t-105.5 103.5zM374 428h265q1 34 -11 61.5t-33 40.5
q-39 24 -71 26l-14 2q-48 0 -90 -28q-20 -13 -33.5 -41t-12.5 -61z" />
    <glyph glyph-name="uniE811" unicode="&#xe811;" horiz-adv-x="830" 
d="M17 592q2 17 15 32l120 120q14 12 21 -4l97 -182q8 -17 -5 -31l-44 -44q-13 -13 -14 -31q0 -31 31 -77q34 -51 61 -80l31 -32q49 -49 108 -88q53 -34 80 -34q19 0 32 13l52 52q14 14 30 4l175 -103q16 -10 4 -22l-120 -120q-15 -13 -32 -15q-48 -7 -111 14
q-94 31 -211 123q-45 35 -72 60l-26 25q-34 34 -80.5 93t-74.5 104q-80 130 -67 223z" />
    <glyph glyph-name="uniE812" unicode="&#xe812;" horiz-adv-x="686" 
d="M168 775h350l150 -100v-500q0 -19 -15.5 -35t-34.5 -16h-550q-19 0 -34.5 16t-15.5 35v500zM218 675l-100 -50v-100h450v100l-100 50h-250zM168 325q-20 0 -35 -14.5t-15 -35t15 -35.5t35 -15t35 15t15 35.5t-15 35t-35 14.5zM518.5 325q-20.5 0 -35.5 -14.5t-15 -35
t15 -35.5t35.5 -15t35 15t14.5 35.5t-14.5 35t-35 14.5zM343 75l275 -150h-550z" />
    <glyph glyph-name="uniE813" unicode="&#xe813;" horiz-adv-x="885" 
d="M193 724h501q24 0 24 -24q0 -25 -24 -25h-201l25 -150v-50l350 -100v-99h-350v-201l125 -50v-49h-401v49l126 50v201h-350v99l350 100v50l26 150h-201q-11 0 -18 7.5t-7 17.5q0 24 25 24z" />
    <glyph glyph-name="uniE814" unicode="&#xe814;" horiz-adv-x="885" 
d="M868 274v-49l-350 49v-199l100 -101q0 -19 -15.5 -34t-34.5 -15h-250q-19 0 -34.5 15t-15.5 34l100 101v201l-350 -51v51l350 199v101q0 54 20.5 126.5t54 72.5t54.5 -73.5t21 -125.5v-101z" />
    <glyph glyph-name="uniE815" unicode="&#xe815;" horiz-adv-x="986" 
d="M418 724q117 0 213 -21t173.5 -66t120.5 -124t43 -188q0 -67 -29 -128.5t-85.5 -112t-149.5 -79.5t-211 -29q-74 0 -124.5 49.5t-50.5 124.5q0 54 -36.5 77t-113.5 23q-72 0 -111 48t-39 126q0 32 17.5 70t52 79t81 74.5t112 55t137.5 21.5zM355.5 625q-26.5 0 -44.5 -18
t-18 -44.5t18 -44.5t44.5 -18t44.5 18t18 44.5t-18 44.5t-44.5 18zM555.5 625q-26.5 0 -44.5 -18t-18 -44.5t18 -44.5t44.5 -18t44.5 18t18 44.5t-18 44.5t-44.5 18zM756 525q-26 0 -44 -18t-18 -44.5t18 -44.5t44 -18t44 18t18 44.5t-18 44.5t-44 18zM180 475
q-26 0 -44 -18t-18 -44.5t18 -44.5t44 -18t44 18t18 44.5t-18 44.5t-44 18zM493 225q-31 0 -53 -22t-22 -53.5t22 -53t53 -21.5t53 21.5t22 53t-22 53.5t-53 22z" />
    <glyph glyph-name="uniE816" unicode="&#xe816;" horiz-adv-x="885" 
d="M68 775h750q50 0 50 -12q0 -10 -26 -39l-324 -390v-309l150 -49q50 -17 50 -51h-550q0 34 50 51l150 49v309l-325 390q-25 29 -25 39q0 12 50 12z" />
    <glyph glyph-name="uniE817" unicode="&#xe817;" horiz-adv-x="885" 
d="M118 775q22 0 50.5 -22.5t73.5 -72t51 -55.5q44 -45 158.5 -196.5t191.5 -228.5l150 -150l25 25q20 0 35 -15.5t15 -34.5l-100 -100q-19 0 -34.5 15.5t-15.5 35.5l25 24l-150 150q-88 87 -235.5 197.5t-189.5 152.5q-6 6 -56 51t-72 73t-22 51q0 47 26.5 73.5t73.5 26.5z
M293 276q31 0 53 -22.5t22 -53.5t-22 -53.5t-53 -22.5t-53 22.5t-22 53.5t22 53.5t53 22.5z" />
    <glyph glyph-name="uniE818" unicode="&#xe818;" horiz-adv-x="885" 
d="M242 775h401l225 -199v-401q0 -19 -15 -34t-35 -15h-178l-98 -176q-9 -18 -18 -21.5t-31 -3.5h-99q-22 0 -31.5 3.5t-19.5 21.5l-97 176h-178q-19 0 -34.5 15t-15.5 34v401zM218 576v-300h450v300h-450zM268 525h350v-200h-350v200zM296 126l28 -51h44v-50h-18l18 -31v31
h50v-51h50v51h50v-31l17 31h-17v50h44l28 49h-72v-49h-50v49h-50v-49h-50v51h-72zM418 25v50h50v-50h-50z" />
    <glyph glyph-name="uniE819" unicode="&#xe819;" horiz-adv-x="786" 
d="M18 775h750l-100 -801q-2 -19 -17 -34t-33 -15h-450q-18 0 -33 15t-17 34zM131 675l23 -200h478l23 200h-524z" />
    <glyph glyph-name="uniE81A" unicode="&#xe81a;" horiz-adv-x="686" 
d="M68 775h550l-275 -150zM168 576h350l150 -101v-499q0 -20 -15.5 -35.5t-34.5 -15.5h-550q-19 0 -34.5 15.5t-15.5 35.5v499zM218 475l-100 -51v-99h450v99l-100 51h-250zM168 126q-20 0 -35 -15t-15 -35.5t15 -35.5t35 -15t35 15t15 35.5t-15 35.5t-35 15zM518.5 126
q-20.5 0 -35.5 -15t-15 -35.5t15 -35.5t35.5 -15t35 15t14.5 35.5t-14.5 35.5t-35 15z" />
    <glyph glyph-name="uniE81B" unicode="&#xe81b;" horiz-adv-x="986" 
d="M718 444q-81 -17 -137.5 -76t-62.5 -143q0 -25 -25 -25h-75q0 -83 -58.5 -141.5t-141 -58.5t-141.5 58.5t-59 141.5t59 141.5t141 58.5q18 0 47 -7l53 107v50h-76v26q0 2 1 6t7.5 11t17.5 7h126q9 0 16.5 -7.5t7.5 -16.5v-26h-50v-50h350v113l-100 37l25 50l100 -39
q25 -10 25 -36v-125l55 -109q64 -18 104.5 -71t40.5 -120q0 -83 -58.5 -141.5t-141.5 -58.5t-141.5 58.5t-58.5 141.5q0 70 42 122.5t108 69.5v52zM368 450l-40 -83q62 -41 82 -117h58q0 39 44 110.5t81 89.5h-225zM218.5 325q-52.5 0 -88.5 -36.5t-36 -88.5t36 -88.5
t88.5 -36.5t88.5 36.5t36 88.5t-36 88.5t-88.5 36.5zM768 325q-53 0 -89 -36.5t-36 -88.5t36 -88.5t89 -36.5t89 36.5t36 88.5t-36 88.5t-89 36.5z" />
    <glyph glyph-name="uniE81C" unicode="&#xe81c;" horiz-adv-x="686" 
d="M168 775h350v-51h100q19 0 34.5 -15t15.5 -34v-650h-50v-100h-100v100h-350v-100h-100v100h-50v650q0 19 15.5 34t34.5 15h100v51zM118 625v-250h450v250h-450zM168 225q-20 0 -35 -15t-15 -35.5t15 -35.5t35 -15t35 15t15 35.5t-15 35.5t-35 15zM518.5 225
q-20.5 0 -35.5 -15t-15 -35.5t15 -35.5t35.5 -15t35 15t14.5 35.5t-14.5 35.5t-35 15z" />
    <glyph glyph-name="uniE81D" unicode="&#xe81d;" horiz-adv-x="986" 
d="M168 700h550q20 0 35 -15t15 -35v-50h150q19 0 34.5 -15t15.5 -35v-150q0 -38 -31.5 -69t-68.5 -31h-50v-24q0 -26 -25 -26h-25v-50q0 -20 -15 -35t-35 -15h-550q-20 0 -35 15t-15 35v450q0 20 15 35t35 15zM768 550v-200h100q19 0 34.5 15.5t15.5 34.5v125q0 25 -25 25
h-125zM18 100h850l-75 -75q-25 -25 -50 -25h-600q-24 0 -49 25z" />
    <glyph glyph-name="uniE81E" unicode="&#xe81e;" horiz-adv-x="986" 
d="M493 700q30 0 43 -25l311 -575h67q22 0 38 -15t16 -35t-16 -35t-38 -15h-843q-22 0 -37.5 15t-15.5 35t15.5 35t37.5 15h67l311 575q13 25 44 25zM493 450l-175 -350h350z" />
    <glyph glyph-name="uniE81F" unicode="&#xe81f;" horiz-adv-x="585" 
d="M293 750q110 0 167.5 -67.5t57.5 -182.5v-450q20 0 35 -15.5t15 -34.5v-50h-550v50q0 19 15.5 34.5t34.5 15.5v450q0 116 56.5 183t168.5 67z" />
    <glyph glyph-name="uniE820" unicode="&#xe820;" horiz-adv-x="836" 
d="M718 775l50 -150l-108 -31l-54 148zM536 723l57 -147l-147 -44q-31 82 -52 143l-4 6zM323 662l56 -148l-129 -38l-57 149zM126 607l54 -149l-112 -32l-50 150zM68 426h750v-450q0 -21 -15 -36t-35 -15h-650q-21 0 -35.5 15t-14.5 36v450zM168 325v-150h550v150h-550z" />
    <glyph glyph-name="uniE821" unicode="&#xe821;" horiz-adv-x="986" 
d="M493 700l475 -250l-150 -83v-217q0 -21 12 -33.5t24 -13.5l14 -3v-50q-4 0 -11 0.5t-24 6t-30 15t-24 30t-11 48.5v189l-275 -139l-475 250zM268 250l225 -109l225 109v-100q1 -17 -22.5 -38.5t-52.5 -36.5l-150 -75l-175 75q-24 12 -37 33t-13 42v100z" />
    <glyph glyph-name="uniE822" unicode="&#xe822;" horiz-adv-x="786" 
d="M68 800h650q20 0 35 -15t15 -35v-800q0 -19 -15.5 -34.5t-34.5 -15.5h-250v150q0 20 -15.5 35t-34.5 15h-50q-19 0 -34.5 -15t-15.5 -35v-150h-250q-19 0 -34.5 15.5t-15.5 34.5v800q0 20 15 35t35 15zM168 650v-100h150v100h-150zM468 650v-100h150v100h-150zM168 350
v-100h150v100h-150zM468 350v-100h150v100h-150z" />
    <glyph glyph-name="uniE823" unicode="&#xe823;" horiz-adv-x="986" 
d="M68 650h850q20 0 35 -15t15 -35v-500q0 -20 -15 -35t-35 -15h-850q-20 0 -35 15t-15 35v500q0 20 15 35t35 15zM43 550v-100h900v100h-900zM68 250v-100h150v100h-150zM518 200v-50h350v50h-350z" />
    <glyph glyph-name="uniE824" unicode="&#xe824;" horiz-adv-x="885" 
d="M68 724q23 23 47.5 35.5t38.5 14.5l14 1l500 -499l-25 -76l199 -200q26 -26 26 -45q0 -15 -7.5 -22.5t-21.5 -7.5q-21 0 -46 25l-200 200l-75 -24l-500 499q0 49 50 99zM242.5 276q31.5 0 53.5 -22.5t22 -53.5t-22 -52.5t-53.5 -21.5t-53 21.5t-21.5 52.5t21.5 53.5
t53 22.5z" />
    <glyph glyph-name="uniE825" unicode="&#xe825;" horiz-adv-x="686" 
d="M68.5 825q20.5 0 35 -15t14.5 -35v-6q27 6 50 6q50 0 175.5 -62.5t174.5 -62.5q52 0 150 74v-349q-67 -50 -150 -50q-51 0 -176 62.5t-174 62.5q-23 0 -50 -12v-513q0 -19 -15 -34.5t-34.5 -15.5t-35 15.5t-15.5 34.5v850q0 20 15 35t35.5 15z" />
    <glyph glyph-name="uniE826" unicode="&#xe826;" horiz-adv-x="986" 
d="M368 675h250q119 0 209.5 -55t90.5 -145v-100h-850v100q0 90 91 145t209 55zM394 625q-11 0 -18.5 -7.5t-7.5 -17.5q0 -24 26 -24q24 0 24 24q0 25 -24 25zM593 625q-11 0 -18 -7.5t-7 -17.5q0 -24 25 -24t25 24q0 10 -7 17.5t-18 7.5zM293 525q-11 0 -18 -7t-7 -18
t7 -18t18 -7t18 7t7 18t-7 18t-18 7zM493 525q-11 0 -18 -7t-7 -18t7 -18t18 -7t18 7t7 18t-7 18t-18 7zM694 525q-11 0 -18.5 -7t-7.5 -18t7.5 -18t18.5 -7q24 0 24 25t-24 25zM68 325h850q19 0 34.5 -15t15.5 -34.5t-15.5 -35t-34.5 -15.5h-850q-19 0 -34.5 15.5t-15.5 35
t15.5 34.5t34.5 15zM68 175h850v-51q0 -38 -30.5 -68.5t-69.5 -30.5h-650q-38 0 -69 30.5t-31 68.5v51z" />
    <glyph glyph-name="uniE827" unicode="&#xe827;" horiz-adv-x="885" 
d="M318 850h250q20 0 35 -15t15 -35h100q20 0 35 -15t15 -35v-303l100 -47l-100 -200v-100l-160 -46q-14 -4 -15 -4t-16 4l-134 46l-135 -46q-14 -4 -15 -4q-7 0 -16 4l-159 46v100l-100 200l100 47v303q0 20 15 35t35 15h100q0 20 15 35t35 15zM218 700v-206l176 82l49 24
q41 -21 118 -56l107 -50v206h-450zM118 0q9 0 15 -3l160 -47l134 47q10 3 16 3t15 -3l135 -47l159 47q10 3 16 3t16 -3l84 -29v-100l-100 32l-160 -47q-14 -3 -15 -3t-16 3l-134 47l-135 -47q-14 -3 -15 -3q-7 0 -16 3l-159 47l-100 -32v100l84 29q7 3 16 3z" />
    <glyph glyph-name="uniE828" unicode="&#xe828;" horiz-adv-x="885" 
d="M443 775l175 -250l100 150q4 -8 36 -56.5t53 -86t41 -97t20 -110.5q0 -163 -128.5 -281.5t-296.5 -118.5t-296.5 118.5t-128.5 281.5q0 51 20 110.5t41 97t53 85.5l36 57l100 -150zM443 375q-7 -6 -19 -15.5t-42 -40t-53 -59.5t-42 -66.5t-19 -69.5q0 -38 51 -68.5
t124 -30.5t124 30.5t51 68.5q0 52 -44 114.5t-87 99.5z" />
    <glyph glyph-name="uniE829" unicode="&#xe829;" horiz-adv-x="986" 
d="M493 675q91 0 173.5 -33.5t135 -81t92.5 -95.5t56 -81l18 -34q-6 -13 -18 -35.5t-55.5 -78t-93.5 -98t-133.5 -78t-174.5 -35.5t-173 33.5t-135 81t-92.5 95.5t-56.5 81l-18 34q6 13 18 35.5t56 78t93.5 98t133 78t174.5 35.5zM343 424q-25 0 -25 -24v-25h-76
q-24 0 -24 -25t24 -25h76v-25q0 -24 25 -24t25 24v25h100v-25q0 -24 25 -24t25 24v25h100v-25q0 -24 25 -24t25 24v25h75q11 0 18 7t7 18t-7 18t-18 7h-75v25q0 24 -25 24t-25 -24v-25h-100v25q0 24 -25 24t-25 -24v-25h-100v25q0 24 -25 24z" />
    <glyph glyph-name="uniE82A" unicode="&#xe82a;" horiz-adv-x="786" 
d="M68 800h450q21 0 35.5 -15t14.5 -35v-50l50 -50h50v-150q0 -25 50 -75t50 -75v-275q0 -75 -74 -75q-76 0 -76 75v100q0 25 -25 25h-25v-250q0 -19 -15 -34.5t-35 -15.5h-450q-19 0 -34.5 15.5t-15.5 34.5v800q0 20 15 35t35 15zM118 700v-200h350v200h-350zM568 550v-300
h50q19 0 34.5 -15.5t15.5 -34.5v-125q0 -11 7 -17.5t13 -7.5h6q2 0 6 0.5t11 7t7 17.5v250q0 25 -50 75t-50 75v75h-50z" />
    <glyph glyph-name="uniE82B" unicode="&#xe82b;" horiz-adv-x="786" 
d="M182 750q11 0 36 -26l75 -74l75 84q16 16 26 16q4 0 8 -1.5t5.5 -3t4.5 -5.5t6 -6l75 -84l75 74q25 26 34 26q16 0 16 -50v-100q0 -72 -60 -112.5t-140 -37.5v-400q46 92 147 163t203 37q-5 -12 -15 -32t-45 -72t-75 -91.5t-105 -72t-134 -32.5q-51 0 -99.5 17t-85 43.5
t-68.5 58t-54 63.5t-38.5 58.5t-23.5 43.5l-7 16q102 34 203 -37t147 -163v400q-80 -3 -140 37.5t-60 112.5v100q0 50 14 50z" />
    <glyph glyph-name="uniE82C" unicode="&#xe82c;" horiz-adv-x="786" 
d="M618 825l125 -101q1 -1 7 -5t9 -6.5t6 -9.5t3 -16q0 -19 -28 -9l-72 22l-200 -276v-148v-13v-13q0 -3 -0.5 -11.5t-1 -12.5t-3 -11t-5 -10.5t-6.5 -7.5t-10 -8l76 -314h-50l-50 150l-50 75v-225h-50v249q0 6 -1 14.5t-14 22.5t-35.5 14t-34.5 -12.5t-13 -26.5l-2 -12
v-249h-50v150l-100 -150h-50q10 27 23.5 52.5t20 44.5t6.5 53v50q0 27 -25 76t-25 74v51q0 48 33 76t76 39t100 32.5t91 51.5q168 151 300 350z" />
    <glyph glyph-name="uniE82D" unicode="&#xe82d;" horiz-adv-x="686" 
d="M193 800q25 0 51 -11l324 -139l-350 -150v-466q5 -2 19.5 -10t21 -11t18.5 -7.5t21.5 -6t19.5 0.5q26 3 53 27.5t46.5 51t47 49t53.5 22.5q58 0 104 -67t46 -158q0 -11 -6.5 -17.5t-12.5 -6.5l-6 -1h-600q-2 0 -6.5 0.5t-11.5 7t-7 17.5q0 43 41 84.5t109 44.5v721
q0 9 1 14.5t5.5 7.5t7.5 2.5t11 0.5z" />
    <glyph glyph-name="uniE82E" unicode="&#xe82e;" horiz-adv-x="885" 
d="M718 650q0 46 27.5 73t72.5 27h20q30 0 30 -26q0 -24 -30 -24h-20q-28 0 -39 -10q-4 -4 -6.5 -13.5t-3.5 -18.5l-1 -8v-500q0 -20 -15.5 -35t-34.5 -15h-550q-24 0 -33.5 12t0 25t33.5 13h550v50h-600l-100 450h700zM643 100q31 0 53 -22t22 -53t-22 -53t-53 -22t-53 22
t-22 53t22 53t53 22zM242.5 100q31.5 0 53.5 -22t22 -53t-22 -53t-53.5 -22t-53 22t-21.5 53t21.5 53t53 22z" />
    <glyph glyph-name="uniE82F" unicode="&#xe82f;" horiz-adv-x="885" 
d="M693.5 775q73.5 0 124 -51t50.5 -124.5t-50.5 -124.5t-123.5 -51q-29 0 -64 14l-412 -413h200q33 0 58.5 12.5t33.5 24.5l8 13l-50 49h200q17 0 25 -3.5t4.5 -11t-8.5 -13t-17 -17.5q-2 -3 -4 -4q-34 -35 -54.5 -53.5t-56 -45t-69.5 -39t-70 -12.5h-350q-19 0 -34.5 15.5
t-15.5 35.5v349q0 75 18.5 106.5t131.5 144.5q12 12 18.5 18t15.5 10t12.5 -3t3.5 -25v-201l-50 51q-2 -2 -5 -4t-12 -10.5t-16 -19t-12 -29t-5 -38.5v-201l412 413q-12 33 -12 63q0 73 51 124t124.5 51zM693.5 675q-31.5 0 -53.5 -22t-22 -53.5t22 -53t53.5 -21.5t53 21.5
t21.5 53t-21.5 53.5t-53 22z" />
    <glyph glyph-name="uniE830" unicode="&#xe830;" horiz-adv-x="986" 
d="M480 50q-7 0 -16 5t-20.5 15.5t-21.5 21.5l-26 28l-28 30l-178 183q-32 -33 -72.5 -33t-70 29t-29.5 71q0 41 29.5 70.5t70.5 29.5q57 0 86 -50h364v100h-300q-21 0 -35.5 14.5t-14.5 35t14.5 35.5t35.5 15h650q20 0 35 -15t15 -35.5t-15 -35t-35 -14.5h-300v-100h150
q50 0 100 -50l50 -50q18 -18 26 -27.5t16 -29t8 -43.5v-150q0 -19 -15.5 -34.5t-34.5 -15.5h-438zM117.5 450q-20.5 0 -35 -14.5t-14.5 -35t14.5 -35.5t35 -15t35.5 15t15 35.5t-15 35t-35.5 14.5z" />
    <glyph glyph-name="uniE831" unicode="&#xe831;" horiz-adv-x="786" 
d="M318 724h150q20 0 35 -14t15 -35v-200h200q20 0 35 -15t15 -36v-148q0 -21 -15 -36t-35 -15h-200v-200q0 -21 -15 -35t-35 -14h-150q-20 0 -35 14t-15 35v200h-200q-20 0 -35 15t-15 36v148q0 21 15 36t35 15h200v200q0 21 15 35t35 14z" />
    <glyph glyph-name="uniE832" unicode="&#xe832;" horiz-adv-x="885" 
d="M618 675q0 19 16 34t34 15t34 -15t16 -34v-200h100q21 0 35.5 -15t14.5 -36v-399q0 -21 -14.5 -35t-35.5 -14h-750q-20 0 -35 14t-15 35v375q0 18 6 31.5t10 18t18 13.5t16 12l200 150v-150l200 150v-150h150v200z" />
    <glyph glyph-name="uniE833" unicode="&#xe833;" horiz-adv-x="885" 
d="M18 700q47 -31 124.5 -59.5t133 -46.5t99 -55.5t43.5 -88.5v-450h-50q0 33 -34.5 52.5t-82.5 28.5t-116 39.5t-117 79.5v500zM868 700v-500q-50 -49 -117 -79.5t-115 -39.5t-83 -28.5t-35 -52.5h-50v450q0 51 43 88.5t99 55.5t133.5 46.5t124.5 59.5z" />
    <glyph glyph-name="uniE834" unicode="&#xe834;" horiz-adv-x="885" 
d="M118 675q42 0 71 -29.5t29 -70t-30 -70.5t-70.5 -30t-70 29.5t-29.5 71.5q0 40 29.5 69.5t70.5 29.5zM268 576h350q71 0 121.5 -11.5t75 -26t37 -39t14.5 -38.5t2 -35v-101h-825q-25 0 -25 25v50q0 12 4 17.5t8 6t13 0.5h75q62 0 106 44.5t44 107.5zM68 276h750
q20 0 35 -16t15 -35v-150q0 -19 -15 -34.5t-34.5 -15.5t-35 15.5t-15.5 34.5v100h-650v-100q0 -19 -15 -34.5t-34.5 -15.5t-35 15.5t-15.5 34.5v150q0 19 15.5 35t34.5 16z" />
    <glyph glyph-name="uniE835" unicode="&#xe835;" horiz-adv-x="986" 
d="M493.5 724q134.5 0 237.5 -85t129 -215h58q19 0 34.5 -15t15.5 -34v-50q0 -19 -15.5 -34t-34.5 -15h-58q-26 -130 -129 -215t-237.5 -85t-238 85t-129.5 215h-58q-19 0 -34.5 15t-15.5 34v50q0 19 15.5 34t34.5 15h58q26 130 129.5 215t238 85zM493.5 600
q-74.5 0 -138 -52t-87.5 -124h450q-24 72 -87 124t-137.5 52zM268 276q24 -72 87.5 -124t138 -52t137.5 52t87 124h-450z" />
    <glyph glyph-name="uniE836" unicode="&#xe836;" horiz-adv-x="885" 
d="M443 724l125 -349l300 201l-100 -326q-19 -42 -40.5 -58.5t-59.5 -16.5h-100v50h-250v-50h-100q-30 0 -44 3t-30 19.5t-26 52.5l-100 326l300 -201zM368 175h150v-49q83 0 141.5 -22.5t58.5 -53.5t-58.5 -52.5t-141.5 -21.5h-150q-82 0 -141 21.5t-59 52.5t59 53.5
t141 22.5v49z" />
    <glyph glyph-name="uniE837" unicode="&#xe837;" horiz-adv-x="786" 
d="M394 825q14 -11 34.5 -29t55 -58t34.5 -63v-549h100q20 0 35 -15t15 -36v-99h50q20 0 35 -15t15 -36v-50h-750v50q0 21 15 36t35 15h50v99q0 21 15 35t35 14h100v551q-3 22 29 59.5t64 64.5z" />
    <glyph glyph-name="uniE838" unicode="&#xe838;" horiz-adv-x="885" 
d="M443 800l325 -250h-650zM168 500h550q20 0 35 -15t15 -35v-350l88 -150q12 -20 12 -25q0 -25 -50 -25h-750q-50 0 -50 25q0 4 12 25l88 150v350q2 21 16 35.5t34 14.5zM268 400q-21 0 -35.5 -15t-14.5 -35v-250q0 -19 15 -34.5t34.5 -15.5t35 15.5t15.5 34.5v200l76 -150
q24 -50 49 -50q11 0 23.5 12t19.5 24l7 14l75 150v-200q0 -19 15.5 -34.5t34.5 -15.5t34.5 15.5t15.5 34.5v250q0 20 -15 35t-35 15h-76q-30 0 -49 -50l-50 -125l-49 125q-26 50 -51 50h-75z" />
    <glyph glyph-name="uniE839" unicode="&#xe839;" horiz-adv-x="585" 
d="M293 825q114 0 194.5 -36.5t80.5 -88.5v-150q0 -52 -80.5 -89t-194.5 -37t-194.5 37t-80.5 89v150q0 52 80.5 88.5t194.5 36.5zM18 450q0 -52 80.5 -88.5t194.5 -36.5t194.5 36.5t80.5 88.5v-450q0 -52 -80.5 -88.5t-194.5 -36.5t-194.5 36.5t-80.5 88.5v450zM168 225
v-200q64 -15 125 -15t125 15v200q-64 -14 -125 -14t-125 14z" />
    <glyph glyph-name="uniE83A" unicode="&#xe83a;" horiz-adv-x="686" 
d="M318 825q41 0 70.5 -29.5t29.5 -71.5q0 -40 -29 -69.5t-71 -29.5t-71 29.5t-29 69.5q0 42 29.5 71.5t70.5 29.5zM30 625q-12 63 -12 75q0 24 18.5 34t40 0t29.5 -34l37 -126h387q40 0 51 -24l80 -166q7 -15 7 -34q0 -22 -16 -31t-37 -0.5t-34 31.5l-63 125h-75
q25 -123 25 -250q0 -38 38.5 -110t100.5 -147q29 -40 16.5 -66.5t-37.5 -26.5q-8 0 -15 2.5t-15 7.5t-13 10t-13 14.5l-12 14.5l-12 15q-8 11 -10 15q-32 40 -64 95t-49 90l-17 36h-124q-9 0 -14 -1.5t-11.5 -6.5t1.5 -17l75 -150q15 -32 -10 -59q-27 -30 -60 -4
q-17 12 -30 39l-75 148q-34 68 -1 110t81 42h44q-3 27 -3 71t-3.5 74.5t-17.5 53.5h-82q-24 0 -36 1.5t-25.5 13t-19.5 35.5z" />
    <glyph glyph-name="uniE83B" unicode="&#xe83b;" horiz-adv-x="686" 
d="M218 800h250q19 0 34.5 -15.5t15.5 -34.5v-50h-350v50q0 19 15.5 34.5t34.5 15.5zM168 650h350v-25q0 -73 -51 -124t-124 -51t-124 51t-51 124v25zM118 400h375l-341 -500h-134v300q0 43 9 86.5t32.5 78.5t58.5 35zM568 400q34 0 58 -36t33 -79t9 -85v-300h-441z" />
    <glyph glyph-name="uniE83C" unicode="&#xe83c;" horiz-adv-x="885" 
d="M68 625h750q22 0 27 -5t-0.5 -10.5t-20.5 -17.5q-3 -3 -6 -4l-400 -288l-350 288q-2 1 -6 4q-10 9 -15 13t-7.5 9.5t5 8t23.5 2.5zM18 550l400 -325l450 325v-424q0 -18 -14.5 -34.5t-30.5 -16.5h-759q-16 0 -31 15.5t-15 33.5v426z" />
    <glyph glyph-name="uniE83D" unicode="&#xe83d;" horiz-adv-x="885" 
d="M68.5 700q20.5 0 35 -15t14.5 -35v-100h150v100q0 20 15 35t35 15t35 -15t15 -35v-100h150v100q0 20 14.5 35t35 15t35.5 -15t15 -35v-100h150v100q0 20 15 35t35.5 15t35 -15t14.5 -35v-600q0 -20 -14.5 -35t-35 -15t-35.5 15t-15 35v100h-150v-100q0 -20 -15 -35
t-35.5 -15t-35 15t-14.5 35v100h-150v-100q0 -20 -15 -35t-35 -15t-35 15t-15 35v100h-150v-100q0 -20 -14.5 -35t-35 -15t-35.5 15t-15 35v600q0 20 15 35t35.5 15zM118 450v-200h150v200h-150zM368 450v-200h150v200h-150zM618 450v-200h150v200h-150z" />
    <glyph glyph-name="uniE83E" unicode="&#xe83e;" horiz-adv-x="686" 
d="M168 675h350l150 -99v-501q0 -19 -15.5 -34.5t-34.5 -15.5h-550q-19 0 -34.5 15.5t-15.5 34.5v501zM218 576l-100 -51v-101h450v101l-100 51h-250zM168 225q-20 0 -35 -15t-15 -35.5t15 -35.5t35 -15t35 15t15 35.5t-15 35.5t-35 15zM518.5 225q-20.5 0 -35.5 -15
t-15 -35.5t15 -35.5t35.5 -15t35 15t14.5 35.5t-14.5 35.5t-35 15z" />
    <glyph glyph-name="uniE83F" unicode="&#xe83f;" horiz-adv-x="686" 
d="M343 800q31 0 53 -22t22 -54v-174h175q31 0 53 -22t22 -53t-22 -53t-53 -22h-175v-424q0 -32 -22 -54t-53 -22t-53 22t-22 54v424h-174q-32 0 -54 22t-22 53t22 53t54 22h174v174q0 32 22 54t53 22z" />
    <glyph glyph-name="uniE840" unicode="&#xe840;" horiz-adv-x="936" 
d="M443 775q96 0 181 -41t145 -112q-79 53 -176 53q-135 0 -230 -95.5t-95 -229.5t95 -229.5t230 -95.5q97 0 176 53q-60 -71 -145 -112t-181 -41q-177 0 -301 124.5t-124 300.5t124 300.5t301 124.5zM694 576l49 -152h175l-150 -99l74 -175l-148 100l-152 -100l76 175
l-150 99h175z" />
    <glyph glyph-name="uniE841" unicode="&#xe841;" horiz-adv-x="836" 
d="M418 800l150 -200h250l-150 -250l150 -250h-250l-150 -200l-150 200h-250l150 250l-150 250h250z" />
    <glyph glyph-name="uniE842" unicode="&#xe842;" horiz-adv-x="585" 
d="M68 800q12 0 12 -25v-199q0 -26 14 -26q12 0 12 26v199q0 25 12 25h50q12 0 12 -25v-199q0 -26 13 -26q12 0 12 26v199q0 25 13 25q20 0 35 -15.5t15 -34.5v-250q0 -25 -25 -49.5t-25 -50.5v-450q0 -19 -15.5 -34.5t-34.5 -15.5h-50q-20 0 -35 15.5t-15 34.5v450
q0 26 -25 50.5t-25 49.5v250q0 19 15.5 34.5t34.5 15.5zM568 800v-850q0 -19 -15 -34.5t-35 -15.5h-50q-19 0 -34.5 15.5t-15.5 34.5v300q-20 0 -35 15t-15 35v200q0 174 26 224q37 76 174 76z" />
    <glyph glyph-name="uniE843" unicode="&#xe843;" horiz-adv-x="885" 
d="M442.5 775q176.5 0 301 -124.5t124.5 -300.5t-124.5 -300.5t-301 -124.5t-300.5 124.5t-124 300.5t124 300.5t300.5 124.5zM168 424v-148h550v148h-550z" />
    <glyph glyph-name="uniE844" unicode="&#xe844;" horiz-adv-x="1086" 
d="M655 800q36 0 62 -26t26 -62t-26 -61.5t-62 -25.5t-61.5 25.5t-25.5 61.5t25.5 62t61.5 26zM256 700q36 0 61.5 -25.5t25.5 -61.5t-25.5 -62t-61.5 -26t-62 26t-26 62t26 61.5t62 25.5zM718 600h50q26 0 39.5 -4.5t34.5 -19.5l167 -119q21 -16 19.5 -36.5t-19.5 -26.5
t-41 6l-150 100q50 -125 50 -200q0 -28 0.5 -40.5t4.5 -37t15.5 -36t29.5 -11.5h113q17 0 26 -9.5t10 -19.5l1 -8q0 -4 -1 -10.5t-10 -17t-26 -10.5h-138q-28 0 -51.5 16t-36.5 37.5t-22 43.5t-13 38l-2 15l-136 -322q-13 -28 -39 -28q-21 0 -33 14.5t-3 38.5l109 290
q0 3 2 7q10 40 0.5 88.5t-27.5 90.5l-17 41l-106 -70q-19 -13 -37.5 -4t-19 27.5t18.5 35.5l163 117q34 24 75 24zM193 500h75q37 0 68.5 -63t31.5 -137.5t26 -74.5h124q24 0 34 -19t0 -37.5t-34 -18.5h-150q-22 0 -41 12.5t-27 24.5l-7 13l-75 -200q-8 -23 -31 -28
t-38.5 10.5t-5.5 42.5l75 200q17 39 1 107t-51 68l-91 -91q-17 -15 -38 -9t-21 25q0 25 19 44l106 106q25 25 50 25z" />
    <glyph glyph-name="uniE845" unicode="&#xe845;" horiz-adv-x="786" 
d="M318 775h150q37 0 66 -30.5t34 -69.5l18 -150h82q20 0 35 -15.5t15 -34.5l50 -499q0 -20 -15.5 -35.5t-34.5 -15.5h-650q-19 0 -34.5 15.5t-15.5 35.5l50 499q0 19 15 34.5t35 15.5h82l18 150q5 39 34 69.5t66 30.5zM318 724q-18 0 -33 -15t-17 -34l-17 -150h284l-17 150
q-2 19 -16.5 34t-33.5 15h-150z" />
    <glyph glyph-name="uniE846" unicode="&#xe846;" horiz-adv-x="986" 
d="M468 750q32 0 97 -38l153 -87l80 -312l94 -41q32 -13 31 -43q-1 -27 -31 -29q-18 -1 -41 8l-114 51q-22 9 -28 32l-35 129l-178 105l20 -83q8 -32 -20 -52l-179 -106l463 -271q34 -19 56 -11q20 7 40 31q11 13 26.5 8t15.5 -22q0 -12 -8 -21l-22 -21q-7 -6 -27.5 -16.5
t-42.5 -10.5q-31 0 -62 18l-726 425q-12 9 -12 23t12 22t25 0l169 -99l186 114l-34 142q-8 27 -8 55q0 52 29 76t71 24zM868 650q42 0 71 -29.5t29 -70.5q0 -42 -29 -71t-71 -29q-41 0 -70.5 29t-29.5 71t29 71t71 29z" />
    <glyph glyph-name="uniE847" unicode="&#xe847;" horiz-adv-x="885" 
d="M443 775q175 0 300 -125t125 -300t-125 -300t-300 -125t-300 125t-125 300t125 300t300 125zM443 700q-145 0 -247 -102t-102 -248q0 -56 13 -100h86q24 0 44 -8t29.5 -16.5t26.5 -25.5t25 -26.5t16.5 -29.5t8.5 -44v-86q47 -14 100 -14q25 0 49 3l-24 97q-12 51 25 75
l75 50q32 22 100 -25l65 -43q35 53 47 101l-86 42q-51 24 -51 75v49q0 14 11 26t22 20l36 22q25 15 39 25q-44 83 -127 133t-181 50zM293 525q9 40 23 49.5t52 1.5l125 -26q24 -4 35.5 -12t12.5 -14.5t1 -23.5v-100q0 -34 -9 -47t-40 -28l-50 -25q-1 -2 -11 -6.5t-13 -6
t-11 -4.5t-13.5 -2t-14 2t-17.5 5t-20 12l-75 50q-10 6 -12.5 15.5t-0.5 17t7 21.5l6 20z" />
    <glyph glyph-name="uniE848" unicode="&#xe848;" horiz-adv-x="885" 
d="M575 675q19 0 32 -11.5t16 -23.5q8 -38 -25 -56l-152 -77l192 -277l-70 -24l-135 44q-9 3 -15 3t-16 -3l-134 -44l-104 34l225 172l-61 83q-14 18 -8.5 42t26.5 34l200 96q14 8 29 8zM668 525q41 0 70.5 -29.5t29.5 -71.5q0 -40 -29 -69.5t-71 -29.5t-71 29.5t-29 70
t29 70.5t71 30zM118 175q9 0 15 -3l135 -44l134 44q10 3 16 3t15 -3l135 -44l134 44q10 3 16 3t15 -3l135 -44v-103l-150 50l-135 -47q-14 -3 -15.5 -3t-15.5 3l-134 47l-135 -47q-14 -3 -15 -3q-6 0 -16 3l-134 47l-100 -35v104l84 28q7 3 16 3z" />
    <glyph glyph-name="uniE849" unicode="&#xe849;" horiz-adv-x="885" 
d="M318 775q124 0 212 -87.5t88 -212.5v-250l224 -225q26 -26 26 -45q0 -15 -7.5 -22.5t-21.5 -7.5q-21 0 -46 25l-225 225h-250q-124 0 -212 87.5t-88 212.5t88 212.5t212 87.5zM568 375l-150 -150h150v150zM93.5 175q31.5 0 53 -21.5t21.5 -53t-21.5 -53.5t-53 -22
t-53.5 22t-22 53.5t22 53t53.5 21.5z" />
    <glyph glyph-name="uniE84A" unicode="&#xe84a;" horiz-adv-x="885" 
d="M68 800q20 0 81.5 -25t118 -25t119 25t81.5 25q18 0 34 -15.5t16 -34.5v-176l-50 26q-20 9 -29 12t-28 1.5t-43 -13.5q-50 -26 -50 -100v-109q-25 9 -50 9q-35 0 -63.5 -10t-44 -25t-25.5 -30t-14 -26l-3 -9h200v-147q-23 -3 -50 -3q-72 0 -123 22.5t-77.5 61.5t-38 80
t-11.5 86v350q0 19 16 34.5t34 15.5zM156 625q-26 0 -44 -18t-18 -44.5t18 -44.5t44 -18t44 18t18 44.5t-18 44.5t-44 18zM418 550q19 0 81.5 -25t118.5 -25t118.5 25t81.5 25q18 0 34 -15.5t16 -34.5v-350q0 -46 -11.5 -87t-38 -79t-77.5 -61t-123 -23t-123 23t-77.5 61
t-38 79t-11.5 87v350q0 19 16 34.5t34 15.5zM505.5 375q-26.5 0 -44.5 -18t-18 -44.5t18 -44.5t44.5 -18t44.5 18t18 44.5t-18 44.5t-44.5 18zM730.5 375q-26.5 0 -44.5 -18t-18 -44.5t18 -44.5t44.5 -18t44.5 18t18 44.5t-18 44.5t-44.5 18zM468 100l4 -10q2 -8 13 -25
t26 -30.5t43.5 -24t63.5 -10.5t63 10t43.5 25t26 30t13.5 26l4 9h-300z" />
    </font>
</defs>
</svg>
